[Arukoru] Liz and the Blue Bird (Liz to Aoi Tori) [1080p x265 10bit BD Dual Audio AAC 5.1]

Category:
Date:
2019-03-13 04:16 UTC
Submitter:
Seeders:
14
Information:
No information.
Leechers:
1
File size:
2.0 GiB
Completed:
1556
Info hash:
952888f8e5e67ad874d6e9bb2249db677a9b683b
[![Arukoru-Liz-and-the-Blue-Bird-Liz-to-Aoi-Tori-mkv-snapshot-0.jpg](https://i.postimg.cc/59Y4kHp9/Arukoru-Liz-and-the-Blue-Bird-Liz-to-Aoi-Tori-mkv-snapshot-0.jpg)](https://postimg.cc/Bt3fjndR) [![Arukoru-Liz-and-the-Blue-Bird-Liz-to-Aoi-Tori-mkv-snapshot-0.jpg](https://i.postimg.cc/W16b6Q8M/Arukoru-Liz-and-the-Blue-Bird-Liz-to-Aoi-Tori-mkv-snapshot-0.jpg)](https://postimg.cc/sMxr3HtX) [![Arukoru-Liz-and-the-Blue-Bird-Liz-to-Aoi-Tori-mkv-snapshot-0.jpg](https://i.postimg.cc/qRYkv0Bd/Arukoru-Liz-and-the-Blue-Bird-Liz-to-Aoi-Tori-mkv-snapshot-0.jpg)](https://postimg.cc/jwHVMpJ8) Format : Matroska Format version : Version 4 File size : 1.98 GiB Duration : 1 h 30 min Overall bit rate : 3 138 kb/s Movie name : Liz and the Blue Bird Encoded date : UTC 2019-03-12 06:36:11 Writing application : mkvmerge v30.1.0 ('Forever And More') 64-bit Writing library : libebml v1.3.6 + libmatroska v1.4.9 / Lavf58.20.100 Video ID : 1 Format : HEVC Format/Info : High Efficiency Video Coding Format profile : Main 10@L4@Main Codec ID : V_MPEGH/ISO/HEVC Duration : 1 h 30 min Bit rate : 2 260 kb/s Width : 1 920 pixels Height : 1 080 pixels Display aspect ratio : 16:9 Frame rate mode : Constant Frame rate : 23.976 (24000/1001) FPS Color space : YUV Chroma subsampling : 4:2:0 Bit depth : 10 bits Bits/(Pixel*Frame) : 0.045 Stream size : 1.42 GiB (72%) Writing library : x265 2.9:[Windows][GCC 7.1.0][64 bit] 10bit Encoding settings : cpuid=1111039 / frame-threads=3 / numa-pools=12 / wpp / no-pmode / no-pme / no-psnr / no-ssim / log-level=2 / input-csp=1 / input-res=1920x1080 / interlace=0 / total-frames=0 / level-idc=0 / high-tier=1 / uhd-bd=0 / ref=5 / no-allow-non-conformance / no-repeat-headers / annexb / no-aud / no-hrd / info / hash=0 / no-temporal-layers / open-gop / min-keyint=24 / keyint=240 / gop-lookahead=0 / bframes=8 / b-adapt=2 / b-pyramid / bframe-bias=0 / rc-lookahead=40 / lookahead-slices=0 / scenecut=40 / radl=0 / no-intra-refresh / ctu=64 / min-cu-size=8 / rect / amp / max-tu-size=32 / tu-inter-depth=3 / tu-intra-depth=3 / limit-tu=4 / rdoq-level=2 / dynamic-rd=0.00 / no-ssim-rd / signhide / no-tskip / nr-intra=0 / nr-inter=0 / no-constrained-intra / strong-intra-smoothing / max-merge=4 / limit-refs=1 / limit-modes / me=3 / subme=4 / merange=57 / temporal-mvp / weightp / weightb / no-analyze-src-pics / deblock=0:0 / sao / no-sao-non-deblock / rd=6 / no-early-skip / rskip / no-fast-intra / no-tskip-fast / no-cu-lossless / b-intra / no-splitrd-skip / rdpenalty=0 / psy-rd=2.00 / psy-rdoq=1.00 / no-rd-refine / no-lossless / cbqpoffs=0 / crqpoffs=0 / rc=crf / crf=19.0 / qcomp=0.60 / qpstep=4 / stats-write=0 / stats-read=0 / ipratio=1.40 / pbratio=1.30 / aq-mode=1 / aq-strength=1.00 / cutree / zone-count=0 / no-strict-cbr / qg-size=32 / no-rc-grain / qpmax=69 / qpmin=0 / no-const-vbv / sar=1 / overscan=0 / videoformat=5 / range=0 / colorprim=1 / transfer=1 / colormatrix=1 / chromaloc=0 / display-window=0 / max-cll=0,0 / min-luma=0 / max-luma=1023 / log2-max-poc-lsb=8 / vui-timing-info / vui-hrd-info / slices=1 / no-opt-qp-pps / no-opt-ref-list-length-pps / no-multi-pass-opt-rps / scenecut-bias=0.05 / no-opt-cu-delta-qp / no-aq-motion / no-hdr / no-hdr-opt / no-dhdr10-opt / no-idr-recovery-sei / analysis-reuse-level=5 / scale-factor=0 / refine-intra=0 / refine-inter=0 / refine-mv=0 / no-limit-sao / ctu-info=0 / no-lowpass-dct / refine-mv-type=0 / copy-pic=1 / max-ausize-factor=1.0 / no-dynamic-refine / no-single-sei Default : Yes Forced : No Color range : Limited Color primaries : BT.709 Transfer characteristics : BT.709 Matrix coefficients : BT.709 Audio #1 ID : 4 Format : AAC LC Format/Info : Advanced Audio Codec Low Complexity Codec ID : A_AAC-2 Duration : 1 h 30 min Bit rate : 434 kb/s Channel(s) : 6 channels Channel layout : C L R Ls Rs LFE Sampling rate : 48.0 kHz Frame rate : 46.875 FPS (1024 SPF) Compression mode : Lossy Delay relative to video : 9 ms Stream size : 280 MiB (14%) Language : English Default : Yes Forced : No Audio #2 ID : 5 Format : AAC LC Format/Info : Advanced Audio Codec Low Complexity Codec ID : A_AAC-2 Duration : 1 h 30 min Bit rate : 433 kb/s Channel(s) : 6 channels Channel layout : C L R Ls Rs LFE Sampling rate : 48.0 kHz Frame rate : 46.875 FPS (1024 SPF) Compression mode : Lossy Delay relative to video : 9 ms Stream size : 279 MiB (14%) Language : Japanese Default : No Forced : No Text #1 ID : 2 Format : PGS Muxing mode : zlib Codec ID : S_HDMV/PGS Codec ID/Info : Picture based subtitle format used on BDs/HD-DVDs Duration : 1 h 23 min Bit rate : 15.9 kb/s Count of elements : 1520 Stream size : 9.55 MiB (0%) Language : English Default : No Forced : No Text #2 ID : 3 Format : PGS Muxing mode : zlib Codec ID : S_HDMV/PGS Codec ID/Info : Picture based subtitle format used on BDs/HD-DVDs Duration : 1 h 13 min Bit rate : 236 b/s Count of elements : 22 Stream size : 127 KiB (0%) Language : English Default : Yes Forced : Yes Menu 00:00:00.000 : :Chapter 1 00:07:39.084 : :Chapter 2 00:14:21.444 : :Chapter 3 00:21:46.806 : :Chapter 4 00:28:13.483 : :Chapter 5 00:33:35.263 : :Chapter 6 00:42:28.129 : :Chapter 7 00:49:13.993 : :Chapter 8 00:56:28.343 : :Chapter 9 01:03:46.197 : :Chapter 10 01:08:05.873 : :Chapter 11 01:18:15.149 : :Chapter 12 Source: USBD [![6321110-sa.jpg](https://i.postimg.cc/XNRC26fh/6321110-sa.jpg)](https://postimg.cc/MXYHT4rb)

File list

funny that this has a dub but the main tv series not
@tsuna69 Usually movies get a dub, and this one is pretty much a standalone movie