[Arukoru] Mob Psycho 100 II - Episode 10 - Collision - Power Type [1080p x265 10bit WEB Multi-Sub AAC]

Category:
Date:
2019-03-12 04:21 UTC
Submitter:
Seeders:
1
Information:
No information.
Leechers:
0
File size:
448.3 MiB
Completed:
390
Info hash:
dbb49aeddd78f5a82208ddc5ef8eff1edc1a76fe
[![Arukoru-Mob-Psycho-100-II-Episode-10-Collision-Power-Typ.png](https://i.postimg.cc/ydtZZJyf/Arukoru-Mob-Psycho-100-II-Episode-10-Collision-Power-Typ.png)](https://postimg.cc/5Y5yc2Gv) [![Arukoru-Mob-Psycho-100-II-Episode-10-Collision-Power-Typ.png](https://i.postimg.cc/TY8b2Dw1/Arukoru-Mob-Psycho-100-II-Episode-10-Collision-Power-Typ.png)](https://postimg.cc/23wy23nN) [![Arukoru-Mob-Psycho-100-II-Episode-10-Collision-Power-Typ.png](https://i.postimg.cc/FKKdCbPW/Arukoru-Mob-Psycho-100-II-Episode-10-Collision-Power-Typ.png)](https://postimg.cc/v4pZcnwf) Format : Matroska Format version : Version 4 File size : 448 MiB Duration : 24 min 11 s Overall bit rate : 2 590 kb/s Encoded date : UTC 2019-03-12 04:14:55 Writing application : mkvmerge v29.0.0 ('Like It Or Not') 64-bit Writing library : libebml v1.3.6 + libmatroska v1.4.9 / Lavf58.20.100 Video ID : 1 Format : HEVC Format/Info : High Efficiency Video Coding Format profile : Main 10@L4@Main Codec ID : V_MPEGH/ISO/HEVC Duration : 24 min 10 s Bit rate : 2 461 kb/s Width : 1 920 pixels Height : 1 080 pixels Display aspect ratio : 16:9 Frame rate mode : Constant Frame rate : 23.976 (24000/1001) FPS Color space : YUV Chroma subsampling : 4:2:0 Bit depth : 10 bits Bits/(Pixel*Frame) : 0.049 Stream size : 425 MiB (95%) Writing library : x265 2.9:[Windows][GCC 7.1.0][64 bit] 10bit Default : Yes Forced : No Color range : Limited Color primaries : BT.709 Transfer characteristics : BT.709 Matrix coefficients : BT.709 Audio ID : 2 Format : AAC LC Format/Info : Advanced Audio Codec Low Complexity Codec ID : A_AAC-2 Duration : 24 min 10 s Bit rate : 128 kb/s Channel(s) : 2 channels Channel layout : L R Sampling rate : 44.1 kHz Frame rate : 43.066 FPS (1024 SPF) Compression mode : Lossy Stream size : 22.1 MiB (5%) Language : Japanese Default : Yes Forced : No Text #1 ID : 3 Format : ASS Codec ID : S_TEXT/ASS Codec ID/Info : Advanced Sub Station Alpha Duration : 24 min 9 s Bit rate : 159 b/s Count of elements : 414 Compression mode : Lossless Stream size : 28.2 KiB (0%) Language : English Default : Yes Forced : Yes Text #2 ID : 4 Format : ASS Codec ID : S_TEXT/ASS Codec ID/Info : Advanced Sub Station Alpha Duration : 24 min 9 s Bit rate : 199 b/s Count of elements : 412 Compression mode : Lossless Stream size : 35.3 KiB (0%) Language : Arabic Default : No Forced : No Text #3 ID : 5 Format : ASS Codec ID : S_TEXT/ASS Codec ID/Info : Advanced Sub Station Alpha Duration : 24 min 8 s Bit rate : 227 b/s Count of elements : 451 Compression mode : Lossless Stream size : 40.2 KiB (0%) Language : German Default : No Forced : No Text #4 ID : 6 Format : ASS Codec ID : S_TEXT/ASS Codec ID/Info : Advanced Sub Station Alpha Duration : 24 min 11 s Bit rate : 120 b/s Count of elements : 342 Compression mode : Lossless Stream size : 21.3 KiB (0%) Language : Spanish Default : No Forced : No Text #5 ID : 7 Format : ASS Codec ID : S_TEXT/ASS Codec ID/Info : Advanced Sub Station Alpha Duration : 24 min 11 s Bit rate : 119 b/s Count of elements : 342 Compression mode : Lossless Stream size : 21.2 KiB (0%) Title : Mexico Language : Spanish Default : No Forced : No Text #6 ID : 8 Format : ASS Codec ID : S_TEXT/ASS Codec ID/Info : Advanced Sub Station Alpha Duration : 24 min 8 s Bit rate : 150 b/s Count of elements : 359 Compression mode : Lossless Stream size : 26.6 KiB (0%) Language : French Default : No Forced : No Text #7 ID : 9 Format : ASS Codec ID : S_TEXT/ASS Codec ID/Info : Advanced Sub Station Alpha Duration : 24 min 9 s Bit rate : 155 b/s Count of elements : 376 Compression mode : Lossless Stream size : 27.5 KiB (0%) Language : Italian Default : No Forced : No Text #8 ID : 10 Format : ASS Codec ID : S_TEXT/ASS Codec ID/Info : Advanced Sub Station Alpha Duration : 24 min 9 s Bit rate : 165 b/s Count of elements : 412 Compression mode : Lossless Stream size : 29.3 KiB (0%) Language : Portuguese Default : No Forced : No Text #9 ID : 11 Format : ASS Codec ID : S_TEXT/ASS Codec ID/Info : Advanced Sub Station Alpha Duration : 24 min 8 s Bit rate : 197 b/s Count of elements : 410 Compression mode : Lossless Stream size : 34.9 KiB (0%) Language : Russian Default : No Forced : No Source: CR WEB-DL

File list

  • [Arukoru] Mob Psycho 100 II - Episode 10 - Collision - Power Type [1080p x265 10bit WEB Multi-Sub AAC].mkv (448.3 MiB)