[NSBC] 3-nen A-gumi E10 [WEBDL] [720p]

Category:
Date:
2019-03-11 00:21 UTC
Submitter:
Seeders:
2
Information:
TlNCQy50bw==
Leechers:
0
File size:
1016.1 MiB
Completed:
771
Info hash:
829d517bad30e64941dd91ba017014d854da6912
> ### ```Reuploaded because before i've was upload the wrong file lol, and this is a Unencoded or Untouched Version, I'm too sleepy for encode this, so yeah :)``` ![poster](http://img.topddl.net/images/1de264ece231aedded297d65875cfef9.jpg "") ``` General Complete name : [NSBC] 3-nen A-gumi E10 [WEBDL] [720p].mp4 Format : MPEG-4 Format profile : Base Media Codec ID : isom (isom/iso2/avc1/mp41) File size : 1 016 MiB Duration : 45 min 16 s Overall bit rate : 3 138 kb/s Writing application : Lavf57.83.100 Video ID : 1 Format : AVC Format/Info : Advanced Video Codec Format profile : Main@L3.1 Format settings : CABAC / 4 Ref Frames Format settings, CABAC : Yes Format settings, RefFrames : 4 frames Codec ID : avc1 Codec ID/Info : Advanced Video Coding Duration : 45 min 15 s Bit rate : 3 002 kb/s Width : 1 280 pixels Height : 720 pixels Display aspect ratio : 16:9 Frame rate mode : Constant Frame rate : 30.000 FPS Color space : YUV Chroma subsampling : 4:2:0 Bit depth : 8 bits Scan type : Progressive Bits/(Pixel*Frame) : 0.109 Stream size : 972 MiB (96%) Writing library : Zencoder Video Encoding System Codec configuration box : avcC Audio ID : 2 Format : AAC LC Format/Info : Advanced Audio Codec Low Complexity Codec ID : mp4a-40-2 Duration : 45 min 16 s Bit rate mode : Constant Bit rate : 128 kb/s Channel(s) : 2 channels Channel layout : L R Sampling rate : 48.0 kHz Frame rate : 46.875 FPS (1024 SPF) Compression mode : Lossy Stream size : 41.4 MiB (4%) Default : Yes Alternate group : 1 ```

File list

  • [NSBC] 3-nen A-gumi E10 [WEBDL] [720p].mp4 (1016.1 MiB)