[Arukoru] Manaria Friends (Mysteria Friends) - Episode 08 - Backstage Confidential [1080p x265 10bit WEB Multi-Sub AAC]

Category:
Date:
2019-03-10 19:32 UTC
Submitter:
Seeders:
2
Information:
No information.
Leechers:
0
File size:
137.6 MiB
Completed:
129
Info hash:
f38744c0d09642916a77fe2a7b695537bdf63a80
[![Arukoru-Manaria-Friends-Mysteria-Friends-Episode-08-Back.png](https://i.postimg.cc/D0fsvVPn/Arukoru-Manaria-Friends-Mysteria-Friends-Episode-08-Back.png)](https://postimg.cc/tZf7kMcM) [![Arukoru-Manaria-Friends-Mysteria-Friends-Episode-08-Back.png](https://i.postimg.cc/G3zGM2b2/Arukoru-Manaria-Friends-Mysteria-Friends-Episode-08-Back.png)](https://postimg.cc/8sJ7cTJQ) [![Arukoru-Manaria-Friends-Mysteria-Friends-Episode-08-Back.png](https://i.postimg.cc/7YW7kWGr/Arukoru-Manaria-Friends-Mysteria-Friends-Episode-08-Back.png)](https://postimg.cc/RNwq1GLg) Format : Matroska Format version : Version 4 File size : 138 MiB Duration : 14 min 44 s Overall bit rate : 1 304 kb/s Encoded date : UTC 2019-03-10 19:28:18 Writing application : mkvmerge v29.0.0 ('Like It Or Not') 64-bit Writing library : libebml v1.3.6 + libmatroska v1.4.9 / Lavf58.20.100 Video ID : 1 Format : HEVC Format/Info : High Efficiency Video Coding Format profile : Main 10@L4@Main Codec ID : V_MPEGH/ISO/HEVC Duration : 14 min 44 s Bit rate : 1 173 kb/s Width : 1 920 pixels Height : 1 080 pixels Display aspect ratio : 16:9 Frame rate mode : Constant Frame rate : 23.976 (24000/1001) FPS Color space : YUV Chroma subsampling : 4:2:0 Bit depth : 10 bits Bits/(Pixel*Frame) : 0.024 Stream size : 124 MiB (90%) Writing library : x265 2.9:[Windows][GCC 7.1.0][64 bit] 10bit Default : Yes Forced : No Color range : Limited Color primaries : BT.709 Transfer characteristics : BT.709 Matrix coefficients : BT.709 Audio ID : 2 Format : AAC LC Format/Info : Advanced Audio Codec Low Complexity Codec ID : A_AAC-2 Duration : 14 min 44 s Bit rate : 128 kb/s Channel(s) : 2 channels Channel layout : L R Sampling rate : 44.1 kHz Frame rate : 43.066 FPS (1024 SPF) Compression mode : Lossy Stream size : 13.5 MiB (10%) Language : Japanese Default : Yes Forced : No Text #1 ID : 3 Format : ASS Codec ID : S_TEXT/ASS Codec ID/Info : Advanced Sub Station Alpha Duration : 12 min 58 s Bit rate : 59 b/s Count of elements : 101 Compression mode : Lossless Stream size : 5.63 KiB (0%) Language : English Default : Yes Forced : Yes Text #2 ID : 4 Format : ASS Codec ID : S_TEXT/ASS Codec ID/Info : Advanced Sub Station Alpha Duration : 12 min 58 s Bit rate : 70 b/s Count of elements : 100 Compression mode : Lossless Stream size : 6.67 KiB (0%) Language : Arabic Default : No Forced : No Text #3 ID : 5 Format : ASS Codec ID : S_TEXT/ASS Codec ID/Info : Advanced Sub Station Alpha Duration : 12 min 58 s Bit rate : 58 b/s Count of elements : 101 Compression mode : Lossless Stream size : 5.53 KiB (0%) Language : German Default : No Forced : No Text #4 ID : 6 Format : ASS Codec ID : S_TEXT/ASS Codec ID/Info : Advanced Sub Station Alpha Duration : 12 min 50 s Bit rate : 52 b/s Count of elements : 92 Compression mode : Lossless Stream size : 4.91 KiB (0%) Language : Spanish Default : No Forced : No Text #5 ID : 7 Format : ASS Codec ID : S_TEXT/ASS Codec ID/Info : Advanced Sub Station Alpha Duration : 12 min 50 s Bit rate : 51 b/s Count of elements : 92 Compression mode : Lossless Stream size : 4.81 KiB (0%) Title : Mexico Language : Spanish Default : No Forced : No Text #6 ID : 8 Format : ASS Codec ID : S_TEXT/ASS Codec ID/Info : Advanced Sub Station Alpha Duration : 12 min 50 s Bit rate : 60 b/s Count of elements : 100 Compression mode : Lossless Stream size : 5.73 KiB (0%) Language : French Default : No Forced : No Text #7 ID : 9 Format : ASS Codec ID : S_TEXT/ASS Codec ID/Info : Advanced Sub Station Alpha Duration : 12 min 58 s Bit rate : 60 b/s Count of elements : 103 Compression mode : Lossless Stream size : 5.77 KiB (0%) Language : Italian Default : No Forced : No Text #8 ID : 10 Format : ASS Codec ID : S_TEXT/ASS Codec ID/Info : Advanced Sub Station Alpha Duration : 12 min 58 s Bit rate : 58 b/s Count of elements : 102 Compression mode : Lossless Stream size : 5.55 KiB (0%) Language : Portuguese Default : No Forced : No Text #9 ID : 11 Format : ASS Codec ID : S_TEXT/ASS Codec ID/Info : Advanced Sub Station Alpha Duration : 13 min 35 s Bit rate : 79 b/s Count of elements : 105 Compression mode : Lossless Stream size : 7.95 KiB (0%) Language : Russian Default : No Forced : No Source: CR WEB-DL

File list

  • [Arukoru] Manaria Friends (Mysteria Friends) - Episode 08 - Backstage Confidential [1080p x265 10bit WEB Multi-Sub AAC].mkv (137.6 MiB)