【动画电影】[白蛇:缘起][White Snake.2019][国语中字][WEB-DL][1080p][x265][HQC]

Category:
Date:
2019-03-04 07:26 UTC
Submitter:
Seeders:
1
File size:
2.1 GiB
Completed:
626
Info hash:
26070cc02de7151298bb8f26b65216dc80a7d8b1
![][0] ◎译 名 White Snake ◎片 名 白蛇:缘起 ◎年 代 2019 ◎产 地 中国大陆 / 美国 ◎类 别 爱情 / 动画 / 奇幻 ◎语 言 汉语普通话 ◎上映日期 2019-01-11(中国大陆) ◎IMDb评分 7.1/10 from 183 users ◎IMDb链接 [http://www.imdb.com/title/tt9288776][1] ◎豆瓣评分 8.0/10 from 167436 users ◎豆瓣链接 [https://movie.douban.com/subject/30331149/][2] ◎片 长 99分钟 ◎导 演 黄家康 Jiakang Huang / 赵霁 Ji Zhao ◎编 剧 大毛 Damao ◎主 演 张喆 Zhe Zhang 杨天翔 Tianxiang Yang 唐小喜 Xiaoxi Tang 刘薇 Wei Liu 张遥函 Yaohan Zhang 郑小璞 Xiaopu Zheng 张博恒 Boheng Zhang 张赫 He Zhang 马程 Cheng Ma 程寅 Yin Cheng 陈霖生 Linsheng Chen 惠龙 Long Hui 林强 Qiang Lin 章斌 Bin Zhang ◎标 签 动画 | 爱情 | 唯美 | 中国 | 古装 | 奇幻 | 中国大陆 | 2019 ◎简 介 晚唐年间,国师发动民众大量捕蛇。前去刺杀国师的白蛇意外失忆,被捕蛇村少年救下。为帮助少女找回记忆,两人踏上了一段冒险旅程。冒险的过程让两人感情迅速升温,但少女蛇妖的身份也逐渐显露,另一边国师与蛇族之间不可避免的大战也即将打响,两人的爱情将要接受巨大考验。 ![][3] General Complete name : E:\White Snake.2019.WEB-DL.1080p.H265.AAC-XMY@.mp4 Format : MPEG-4 Format profile : Base Media Codec ID : isom (isom/iso2/mp41) File size : 2.07 GiB Duration : 1 h 38 min Overall bit rate : 3 000 kb/s Writing application : Lavf57.48.101 Video ID : 1 Format : HEVC Format/Info : High Efficiency Video Coding Format profile : Main@L5@Main Codec ID : hev1 Codec ID/Info : High Efficiency Video Coding Duration : 1 h 38 min Bit rate : 2 864 kb/s Width : 1 920 pixels Height : 818 pixels Display aspect ratio : 2.35:1 Frame rate mode : Variable Frame rate : 24.000 FPS Minimum frame rate : 23.994 FPS Maximum frame rate : 24.006 FPS Color space : YUV Chroma subsampling : 4:2:0 Bit depth : 8 bits Bits/(Pixel*Frame) : 0.076 Stream size : 1.97 GiB (95%) Color range : Limited Color primaries : BT.709 Transfer characteristics : BT.709 Matrix coefficients : BT.709 Codec configuration box : hvcC Audio ID : 2 Format : AAC LC Format/Info : Advanced Audio Codec Low Complexity Codec ID : mp4a-40-2 Duration : 1 h 38 min Bit rate mode : Constant Bit rate : 128 kb/s Channel(s) : 2 channels Channel layout : L R Sampling rate : 48.0 kHz Frame rate : 46.875 FPS (1024 SPF) Compression mode : Lossy Stream size : 90.4 MiB (4%) Default : Yes Alternate group : 1 [0]: http://wx4.sinaimg.cn/large/0079585Rly1fys0ezcd03j32o53qle89.jpg [1]: http://www.imdb.com/title/tt9288776 [2]: https://movie.douban.com/subject/30331149/ [3]: https://ws1.sinaimg.cn/large/83d65701ly1g0qsfkgtlgj21i30qa4qp.jpg

File list

  • White Snake.2019.WEB-DL.1080p.H265.AAC-XMY@HQC.mp4 (2.1 GiB)