[Arukoru] Manaria Friends (Mysteria Friends) - Episode 07 - Hide-and-Seek [1080p x265 10bit WEB Multi-Sub AAC]

Category:
Date:
2019-03-04 04:33 UTC
Submitter:
Seeders:
2
Information:
No information.
Leechers:
0
File size:
104.9 MiB
Completed:
132
Info hash:
177804d110b90a955cb43738963a3911a8416583
[![Arukoru-Manaria-Friends-Mysteria-Friends-Episode-07-Hide.png](https://i.postimg.cc/4xb2RyT0/Arukoru-Manaria-Friends-Mysteria-Friends-Episode-07-Hide.png)](https://postimg.cc/tsJNhXJd) [![Arukoru-Manaria-Friends-Mysteria-Friends-Episode-07-Hide.png](https://i.postimg.cc/SKgZjPR7/Arukoru-Manaria-Friends-Mysteria-Friends-Episode-07-Hide.png)](https://postimg.cc/QBWgy0pH) [![Arukoru-Manaria-Friends-Mysteria-Friends-Episode-07-Hide.png](https://i.postimg.cc/3RWtGZDM/Arukoru-Manaria-Friends-Mysteria-Friends-Episode-07-Hide.png)](https://postimg.cc/8JQdQMHw) Format : Matroska Format version : Version 4 File size : 105 MiB Duration : 14 min 31 s Overall bit rate : 1 009 kb/s Encoded date : UTC 2019-03-04 03:53:38 Writing application : mkvmerge v29.0.0 ('Like It Or Not') 64-bit Writing library : libebml v1.3.6 + libmatroska v1.4.9 / Lavf58.20.100 Video ID : 1 Format : HEVC Format/Info : High Efficiency Video Coding Format profile : Main 10@L4@Main Codec ID : V_MPEGH/ISO/HEVC Duration : 14 min 31 s Bit rate : 878 kb/s Width : 1 920 pixels Height : 1 080 pixels Display aspect ratio : 16:9 Frame rate mode : Constant Frame rate : 23.976 (24000/1001) FPS Color space : YUV Chroma subsampling : 4:2:0 Bit depth : 10 bits Bits/(Pixel*Frame) : 0.018 Stream size : 91.2 MiB (87%) Writing library : x265 2.9:[Windows][GCC 7.1.0][64 bit] 10bit Forced : No Color range : Limited Color primaries : BT.709 Transfer characteristics : BT.709 Matrix coefficients : BT.709 Audio ID : 2 Format : AAC LC Format/Info : Advanced Audio Codec Low Complexity Codec ID : A_AAC-2 Duration : 14 min 31 s Bit rate : 128 kb/s Channel(s) : 2 channels Channel layout : L R Sampling rate : 44.1 kHz Frame rate : 43.066 FPS (1024 SPF) Compression mode : Lossy Stream size : 13.3 MiB (13%) Language : Japanese Default : Yes Forced : No Text #1 ID : 3 Format : ASS Codec ID : S_TEXT/ASS Codec ID/Info : Advanced Sub Station Alpha Duration : 13 min 23 s Bit rate : 63 b/s Count of elements : 120 Compression mode : Lossless Stream size : 6.21 KiB (0%) Language : English Default : Yes Forced : Yes Text #2 ID : 4 Format : ASS Codec ID : S_TEXT/ASS Codec ID/Info : Advanced Sub Station Alpha Duration : 13 min 24 s Bit rate : 74 b/s Count of elements : 119 Compression mode : Lossless Stream size : 7.36 KiB (0%) Language : Arabic Default : No Forced : No Text #3 ID : 5 Format : ASS Codec ID : S_TEXT/ASS Codec ID/Info : Advanced Sub Station Alpha Duration : 13 min 24 s Bit rate : 69 b/s Count of elements : 134 Compression mode : Lossless Stream size : 6.87 KiB (0%) Language : German Default : No Forced : No Text #4 ID : 6 Format : ASS Codec ID : S_TEXT/ASS Codec ID/Info : Advanced Sub Station Alpha Duration : 13 min 24 s Bit rate : 56 b/s Count of elements : 107 Compression mode : Lossless Stream size : 5.55 KiB (0%) Language : Spanish Default : No Forced : No Text #5 ID : 7 Format : ASS Codec ID : S_TEXT/ASS Codec ID/Info : Advanced Sub Station Alpha Duration : 13 min 24 s Bit rate : 56 b/s Count of elements : 107 Compression mode : Lossless Stream size : 5.59 KiB (0%) Title : Mexico Language : Spanish Default : No Forced : No Text #6 ID : 8 Format : ASS Codec ID : S_TEXT/ASS Codec ID/Info : Advanced Sub Station Alpha Duration : 13 min 23 s Bit rate : 70 b/s Count of elements : 133 Compression mode : Lossless Stream size : 6.93 KiB (0%) Language : French Default : No Forced : No Text #7 ID : 9 Format : ASS Codec ID : S_TEXT/ASS Codec ID/Info : Advanced Sub Station Alpha Duration : 13 min 23 s Bit rate : 68 b/s Count of elements : 136 Compression mode : Lossless Stream size : 6.72 KiB (0%) Language : Italian Default : No Forced : No Text #8 ID : 10 Format : ASS Codec ID : S_TEXT/ASS Codec ID/Info : Advanced Sub Station Alpha Duration : 13 min 23 s Bit rate : 63 b/s Count of elements : 125 Compression mode : Lossless Stream size : 6.21 KiB (0%) Language : Portuguese Default : No Forced : No Text #9 ID : 11 Format : ASS Codec ID : S_TEXT/ASS Codec ID/Info : Advanced Sub Station Alpha Duration : 13 min 37 s Bit rate : 96 b/s Count of elements : 140 Compression mode : Lossless Stream size : 9.67 KiB (0%) Language : Russian Default : No Forced : No Source: CR WEB-DL

File list

  • [Arukoru] Manaria Friends (Mysteria Friends) - Episode 07 - Hide-and-Seek [1080p x265 10bit WEB Multi-Sub AAC].mkv (104.9 MiB)