[Arukoru] Manaria Friends (Mysteria Friends) - Episode 06 - Floating At Sea [1080p x265 10bit WEB Multi-Sub AAC]

Category:
Date:
2019-02-26 05:49 UTC
Submitter:
Seeders:
2
Information:
No information.
Leechers:
0
File size:
185.9 MiB
Completed:
124
Info hash:
5eb0251c9142103a6b56652b7db9aba0eb409655
[![Arukoru-Manaria-Friends-Mysteria-Friends-Episode-06-Floa.png](https://i.postimg.cc/hPgrLnmH/Arukoru-Manaria-Friends-Mysteria-Friends-Episode-06-Floa.png)](https://postimg.cc/MXPVwhdD) [![Arukoru-Manaria-Friends-Mysteria-Friends-Episode-06-Floa.png](https://i.postimg.cc/qvDxHCFT/Arukoru-Manaria-Friends-Mysteria-Friends-Episode-06-Floa.png)](https://postimg.cc/jDN7zCKg) [![Arukoru-Manaria-Friends-Mysteria-Friends-Episode-06-Floa.png](https://i.postimg.cc/1tjkgt4h/Arukoru-Manaria-Friends-Mysteria-Friends-Episode-06-Floa.png)](https://postimg.cc/62CjgBdY) Format : Matroska Format version : Version 4 File size : 186 MiB Duration : 15 min 17 s Overall bit rate : 1 699 kb/s Encoded date : UTC 2019-02-26 05:37:56 Writing application : mkvmerge v29.0.0 ('Like It Or Not') 64-bit Writing library : libebml v1.3.6 + libmatroska v1.4.9 / Lavf58.20.100 Video ID : 1 Format : HEVC Format/Info : High Efficiency Video Coding Format profile : Main 10@L4@Main Codec ID : V_MPEGH/ISO/HEVC Duration : 15 min 17 s Bit rate : 1 568 kb/s Width : 1 920 pixels Height : 1 080 pixels Display aspect ratio : 16:9 Frame rate mode : Constant Frame rate : 23.976 (24000/1001) FPS Color space : YUV Chroma subsampling : 4:2:0 Bit depth : 10 bits Bits/(Pixel*Frame) : 0.032 Stream size : 172 MiB (92%) Writing library : x265 2.9:[Windows][GCC 7.1.0][64 bit] 10bit Default : Yes Forced : No Color range : Limited Color primaries : BT.709 Transfer characteristics : BT.709 Matrix coefficients : BT.709 Audio ID : 2 Format : AAC LC Format/Info : Advanced Audio Codec Low Complexity Codec ID : A_AAC-2 Duration : 15 min 17 s Bit rate : 128 kb/s Channel(s) : 2 channels Channel layout : L R Sampling rate : 44.1 kHz Frame rate : 43.066 FPS (1024 SPF) Compression mode : Lossy Stream size : 14.0 MiB (8%) Language : Japanese Default : Yes Forced : No Text #1 ID : 3 Format : ASS Codec ID : S_TEXT/ASS Codec ID/Info : Advanced Sub Station Alpha Duration : 14 min 6 s Bit rate : 83 b/s Count of elements : 142 Compression mode : Lossless Stream size : 8.62 KiB (0%) Language : English Default : Yes Forced : Yes Text #2 ID : 4 Format : ASS Codec ID : S_TEXT/ASS Codec ID/Info : Advanced Sub Station Alpha Duration : 14 min 4 s Bit rate : 77 b/s Count of elements : 145 Compression mode : Lossless Stream size : 7.98 KiB (0%) Language : German Default : No Forced : No Text #3 ID : 5 Format : ASS Codec ID : S_TEXT/ASS Codec ID/Info : Advanced Sub Station Alpha Duration : 14 min 3 s Bit rate : 64 b/s Count of elements : 126 Compression mode : Lossless Stream size : 6.65 KiB (0%) Language : Spanish Default : No Forced : No Text #4 ID : 6 Format : ASS Codec ID : S_TEXT/ASS Codec ID/Info : Advanced Sub Station Alpha Duration : 14 min 3 s Bit rate : 64 b/s Count of elements : 126 Compression mode : Lossless Stream size : 6.60 KiB (0%) Title : Mexico Language : Spanish Default : No Forced : No Text #5 ID : 7 Format : ASS Codec ID : S_TEXT/ASS Codec ID/Info : Advanced Sub Station Alpha Duration : 14 min 3 s Bit rate : 74 b/s Count of elements : 130 Compression mode : Lossless Stream size : 7.67 KiB (0%) Language : French Default : No Forced : No Text #6 ID : 8 Format : ASS Codec ID : S_TEXT/ASS Codec ID/Info : Advanced Sub Station Alpha Duration : 14 min 3 s Bit rate : 75 b/s Count of elements : 138 Compression mode : Lossless Stream size : 7.78 KiB (0%) Language : Italian Default : No Forced : No Text #7 ID : 9 Format : ASS Codec ID : S_TEXT/ASS Codec ID/Info : Advanced Sub Station Alpha Duration : 14 min 3 s Bit rate : 71 b/s Count of elements : 138 Compression mode : Lossless Stream size : 7.32 KiB (0%) Language : Portuguese Default : No Forced : No Text #8 ID : 10 Format : ASS Codec ID : S_TEXT/ASS Codec ID/Info : Advanced Sub Station Alpha Duration : 14 min 18 s Bit rate : 100 b/s Count of elements : 137 Compression mode : Lossless Stream size : 10.5 KiB (0%) Language : Russian Default : No Forced : No Source: CR WEB-DL

File list

  • [Arukoru] Manaria Friends (Mysteria Friends) - Episode 06 - Floating At Sea [1080p x265 10bit WEB Multi-Sub AAC].mkv (185.9 MiB)