Bang Dream 2nd season Ep 8 [720p 60 fps]

Category:
Date:
2019-02-21 18:48 UTC
Submitter:
Anonymous
Seeders:
0
Information:
No information.
Leechers:
0
File size:
400.7 MiB
Completed:
17
Info hash:
e4a76e28090474ae6f7374b3e4f661fd1735072f
*animations are less choppy General Unique ID : 237666992528791453038296108408852281398 (0xB2CCFF6DE0F190E6747E503C2D9D7836) Format : Matroska Format version : Version 4 / Version 2 File size : 401 MiB Duration : 24 min 24 s Overall bit rate : 2 295 kb/s Encoded date : UTC 2019-02-21 18:45:01 Writing application : mkvmerge v28.2.0 ('The Awakening') 32-bit Writing library : libebml v1.3.6 + libmatroska v1.4.9 Video ID : 2 Format : AVC Format/Info : Advanced Video Codec Format profile : High@L4.2 Format settings : CABAC / 4 Ref Frames Format settings, CABAC : Yes Format settings, ReFrames : 4 frames Codec ID : V_MPEG4/ISO/AVC Duration : 24 min 24 s Bit rate : 2 100 kb/s Width : 1 280 pixels Height : 720 pixels Display aspect ratio : 16:9 Frame rate mode : Constant Frame rate : 60.000 FPS Color space : YUV Chroma subsampling : 4:2:0 Bit depth : 8 bits Scan type : Progressive Bits/(Pixel*Frame) : 0.038 Stream size : 366 MiB (91%) Writing library : x264 core 155 r2901 7d0ff22 Default : Yes Forced : Yes Color range : Limited Matrix coefficients : BT.470 System B/G Audio ID : 3 Format : AAC Format/Info : Advanced Audio Codec Format profile : LC Codec ID : A_AAC-2 Duration : 24 min 24 s Bit rate : 192 kb/s Channel(s) : 2 channels Channel positions : Front: L R Sampling rate : 48.0 kHz Frame rate : 46.875 FPS (1024 SPF) Compression mode : Lossy Delay relative to video : 8 ms Stream size : 33.7 MiB (8%) Default : Yes Forced : No Text ID : 1 Format : ASS Codec ID : S_TEXT/ASS Codec ID/Info : Advanced Sub Station Alpha Duration : 23 min 26 s Bit rate : 120 b/s Count of elements : 336 Compression mode : Lossless Stream size : 20.7 KiB (0%) Default : Yes Forced : No

File list

  • Bang Dream 2nd season Ep 8 [720p 60fps ] .mkv (400.7 MiB)