[Arukoru] Manaria Friends (Mysteria Friends) - Episode 05 - Academy Down [1080p x265 10bit WEB Multi-Sub AAC]

Category:
Date:
2019-02-18 05:07 UTC
Submitter:
Seeders:
0
Information:
No information.
Leechers:
0
File size:
149.1 MiB
Completed:
144
Info hash:
3b906a74a5ab2f43bf137ec849f2f09ac5b40242
[![Arukoru-Manaria-Friends-Mysteria-Friends-Episode-05-Acad.png](https://i.postimg.cc/66SyBt5W/Arukoru-Manaria-Friends-Mysteria-Friends-Episode-05-Acad.png)](https://postimg.cc/z3CJjmg6) [![Arukoru-Manaria-Friends-Mysteria-Friends-Episode-05-Acad.png](https://i.postimg.cc/4xRyhP9j/Arukoru-Manaria-Friends-Mysteria-Friends-Episode-05-Acad.png)](https://postimg.cc/D85n9q5c) [![Arukoru-Manaria-Friends-Mysteria-Friends-Episode-05-Acad.png](https://i.postimg.cc/cJsJFJTm/Arukoru-Manaria-Friends-Mysteria-Friends-Episode-05-Acad.png)](https://postimg.cc/k2p94q06) Format : Matroska Format version : Version 4 File size : 149 MiB Duration : 14 min 32 s Overall bit rate : 1 433 kb/s Encoded date : UTC 2019-02-18 04:10:52 Writing application : mkvmerge v29.0.0 ('Like It Or Not') 64-bit Writing library : libebml v1.3.6 + libmatroska v1.4.9 / Lavf58.20.100 Video ID : 1 Format : HEVC Format/Info : High Efficiency Video Coding Format profile : Main 10@L4@Main Codec ID : V_MPEGH/ISO/HEVC Duration : 14 min 32 s Bit rate : 1 301 kb/s Width : 1 920 pixels Height : 1 080 pixels Display aspect ratio : 16:9 Frame rate mode : Constant Frame rate : 23.976 (24000/1001) FPS Color space : YUV Chroma subsampling : 4:2:0 Bit depth : 10 bits Bits/(Pixel*Frame) : 0.026 Stream size : 135 MiB (91%) Writing library : x265 2.9:[Windows][GCC 7.1.0][64 bit] 10bit Default : Yes Forced : No Color range : Limited Color primaries : BT.709 Transfer characteristics : BT.709 Matrix coefficients : BT.709 Audio ID : 2 Format : AAC LC Format/Info : Advanced Audio Codec Low Complexity Codec ID : A_AAC-2 Duration : 14 min 32 s Bit rate : 128 kb/s Channel(s) : 2 channels Channel layout : L R Sampling rate : 44.1 kHz Frame rate : 43.066 FPS (1024 SPF) Compression mode : Lossy Stream size : 13.3 MiB (9%) Language : Japanese Default : Yes Forced : No Text #1 ID : 3 Format : ASS Codec ID : S_TEXT/ASS Codec ID/Info : Advanced Sub Station Alpha Duration : 13 min 24 s Bit rate : 151 b/s Count of elements : 219 Compression mode : Lossless Stream size : 14.9 KiB (0%) Language : English Default : Yes Forced : Yes Text #2 ID : 4 Format : ASS Codec ID : S_TEXT/ASS Codec ID/Info : Advanced Sub Station Alpha Duration : 13 min 24 s Bit rate : 172 b/s Count of elements : 202 Compression mode : Lossless Stream size : 17.0 KiB (0%) Language : Arabic Default : No Forced : No Text #3 ID : 5 Format : ASS Codec ID : S_TEXT/ASS Codec ID/Info : Advanced Sub Station Alpha Duration : 13 min 25 s Bit rate : 122 b/s Count of elements : 198 Compression mode : Lossless Stream size : 12.0 KiB (0%) Language : German Default : No Forced : No Text #4 ID : 6 Format : ASS Codec ID : S_TEXT/ASS Codec ID/Info : Advanced Sub Station Alpha Duration : 13 min 25 s Bit rate : 104 b/s Count of elements : 181 Compression mode : Lossless Stream size : 10.3 KiB (0%) Language : Spanish Default : No Forced : No Text #5 ID : 7 Format : ASS Codec ID : S_TEXT/ASS Codec ID/Info : Advanced Sub Station Alpha Duration : 13 min 25 s Bit rate : 103 b/s Count of elements : 181 Compression mode : Lossless Stream size : 10.2 KiB (0%) Title : Mexico Language : Spanish Default : No Forced : No Text #6 ID : 8 Format : ASS Codec ID : S_TEXT/ASS Codec ID/Info : Advanced Sub Station Alpha Duration : 13 min 24 s Bit rate : 116 b/s Count of elements : 176 Compression mode : Lossless Stream size : 11.5 KiB (0%) Language : French Default : No Forced : No Text #7 ID : 9 Format : ASS Codec ID : S_TEXT/ASS Codec ID/Info : Advanced Sub Station Alpha Duration : 13 min 24 s Bit rate : 133 b/s Count of elements : 200 Compression mode : Lossless Stream size : 13.1 KiB (0%) Language : Italian Default : No Forced : No Text #8 ID : 10 Format : ASS Codec ID : S_TEXT/ASS Codec ID/Info : Advanced Sub Station Alpha Duration : 13 min 24 s Bit rate : 122 b/s Count of elements : 197 Compression mode : Lossless Stream size : 12.0 KiB (0%) Language : Portuguese Default : No Forced : No Text #9 ID : 11 Format : ASS Codec ID : S_TEXT/ASS Codec ID/Info : Advanced Sub Station Alpha Duration : 13 min 39 s Bit rate : 189 b/s Count of elements : 206 Compression mode : Lossless Stream size : 18.9 KiB (0%) Language : Russian Default : No Forced : No Source: CR WEB-DL

File list

  • [Arukoru] Manaria Friends (Mysteria Friends) - Episode 05 - Academy Down [1080p x265 10bit WEB Multi-Sub AAC].mkv (149.1 MiB)