[Neutrinome] Tanaka-kun wa Itsumo Kedaruge - VOSTFR [1080p BDRip FLAC] + DDL

Category:
Date:
2019-02-16 18:09 UTC
Submitter:
Seeders:
1
Information:
Leechers:
0
File size:
10.9 GiB
Completed:
80
Info hash:
920b5cb422e1d3d5fc261c5f03669631b8c7a39b
Tanaka-kun wa Itsumo Kedaruge ====== *** ![alt text](https://www.thetvdb.com/banners/posters/305104-2.jpg) *** * **Date de sortie** : 2016 * **Durée** : 12*24min * **Licencié** : Non * **Vidéo** : Kametsu * **Sous-titre** : Chuushin no Fansub [C-N-F] * **Lien DDL** : [Uptobox](https://uptobox.com/jcxxypvvwdca) *** **NFO** General Unique ID : 286673935776999477443776084492677804925 (0xD7AB6447AF5DBE51134D8EF6B6EBF37D) Format : Matroska Format version : Version 4 File size : 887 MiB Duration : 23 min 47 s Overall bit rate mode : Variable Overall bit rate : 5 215 kb/s Encoded date : UTC 2019-02-13 18:54:25 Writing application : mkvmerge v30.1.0 ('Forever And More') 64-bit Writing library : libebml v1.3.6 + libmatroska v1.4.9 Attachments : Always In My Heart_0.ttf / Andyb_0.ttf / arial.ttf / arialbd.ttf / Cabin-Regular-TTF.ttf / DK Jambo.otf / Dry Brush_4.ttf / Om Telolet Om_0.otf / OpenSans-Semibold.ttf / STEINEMU_1.ttf / TakeItEasy_4.ttf / Yananeska Personal Use.ttf Video ID : 1 Format : AVC Format/Info : Advanced Video Codec Format profile : High 10@L5 Format settings : CABAC / 6 Ref Frames Format settings, CABAC : Yes Format settings, ReFrames : 6 frames Codec ID : V_MPEG4/ISO/AVC Duration : 23 min 46 s Bit rate : 3 918 kb/s Width : 1 920 pixels Height : 1 080 pixels Display aspect ratio : 16:9 Frame rate mode : Constant Frame rate : 23.976 (24000/1001) FPS Color space : YUV Chroma subsampling : 4:2:0 Bit depth : 10 bits Scan type : Progressive Bits/(Pixel*Frame) : 0.079 Stream size : 666 MiB (75%) Title : [Kametsu] Writing library : x264 core 152 r2851 ba24899 (DJATOM's build) Encoding settings : cabac=1 / ref=6 / deblock=1:1:-2 / analyse=0x3:0x133 / me=umh / subme=11 / psy=1 / psy_rd=1.00:0.00 / mixed_ref=1 / me_range=32 / chroma_me=1 / trellis=2 / 8x8dct=1 / cqm=0 / deadzone=21,11 / fast_pskip=1 / chroma_qp_offset=-2 / threads=12 / lookahead_threads=3 / sliced_threads=0 / nr=0 / decimate=1 / interlaced=0 / bluray_compat=0 / constrained_intra=0 / bframes=16 / b_pyramid=2 / b_adapt=2 / b_bias=0 / direct=1 / weightb=1 / open_gop=0 / weightp=2 / keyint=250 / keyint_min=23 / scenecut=40 / intra_refresh=0 / rc=crf / mbtree=0 / crf=15.0000 / qcomp=0.72 / qpmin=0 / qpmax=81 / qpstep=4 / ip_ratio=1.40 / pb_ratio=1.30 / aq=1:0.85 Default : Yes Forced : No Color range : Limited Matrix coefficients : BT.709 Audio ID : 2 Format : FLAC Format/Info : Free Lossless Audio Codec Codec ID : A_FLAC Duration : 23 min 46 s Bit rate mode : Variable Bit rate : 1 281 kb/s Channel(s) : 2 channels Channel layout : L R Sampling rate : 48.0 kHz Frame rate : 11.719 FPS (4096 SPF) Bit depth : 24 bits Compression mode : Lossless Stream size : 218 MiB (25%) Title : Japonais Writing library : libFLAC 1.2.1 (UTC 2007-09-17) Language : Japanese Default : Yes Forced : No Text ID : 3 Format : ASS Codec ID : S_TEXT/ASS Codec ID/Info : Advanced Sub Station Alpha Duration : 22 min 53 s Bit rate : 483 b/s Count of elements : 778 Compression mode : Lossless Stream size : 81.0 KiB (0%) Title : [C-N-F] Français Language : French Default : Yes Forced : No Menu 00:00:00.000 : :Prologue 00:02:24.353 : :Opening 00:04:06.997 : :Part A 00:10:02.018 : :Part B 00:14:43.049 : :Part C 00:22:10.037 : :Ending 00:23:31.076 : :Preview

File list

  • [Neutrinome] Tanaka-kun wa Itsumo Kedaruge - VOSTFR [1080p BDRip FLAC]
    • [Neutrinome] Tanaka-kun wa Itsumo Kedaruge - 01 - VOSTFR [1080p BDRip FLAC].mkv (887.4 MiB)
    • [Neutrinome] Tanaka-kun wa Itsumo Kedaruge - 02 - VOSTFR [1080p BDRip FLAC].mkv (873.1 MiB)
    • [Neutrinome] Tanaka-kun wa Itsumo Kedaruge - 03 - VOSTFR [1080p BDRip FLAC].mkv (918.1 MiB)
    • [Neutrinome] Tanaka-kun wa Itsumo Kedaruge - 04 - VOSTFR [1080p BDRip FLAC].mkv (905.7 MiB)
    • [Neutrinome] Tanaka-kun wa Itsumo Kedaruge - 05 - VOSTFR [1080p BDRip FLAC].mkv (958.6 MiB)
    • [Neutrinome] Tanaka-kun wa Itsumo Kedaruge - 06 - VOSTFR [1080p BDRip FLAC].mkv (981.9 MiB)
    • [Neutrinome] Tanaka-kun wa Itsumo Kedaruge - 07 - VOSTFR [1080p BDRip FLAC].mkv (901.5 MiB)
    • [Neutrinome] Tanaka-kun wa Itsumo Kedaruge - 08 - VOSTFR [1080p BDRip FLAC].mkv (877.1 MiB)
    • [Neutrinome] Tanaka-kun wa Itsumo Kedaruge - 09 - VOSTFR [1080p BDRip FLAC].mkv (983.0 MiB)
    • [Neutrinome] Tanaka-kun wa Itsumo Kedaruge - 10 - VOSTFR [1080p BDRip FLAC].mkv (1.0 GiB)
    • [Neutrinome] Tanaka-kun wa Itsumo Kedaruge - 11 - VOSTFR [1080p BDRip FLAC].mkv (940.9 MiB)
    • [Neutrinome] Tanaka-kun wa Itsumo Kedaruge - 12 - VOSTFR [1080p BDRip FLAC].mkv (878.9 MiB)