[STARS] Akira [BDRIP - MULTi GER/DE/JAP - 1080p]

Category:
Date:
2019-02-14 11:13 UTC
Submitter:
Seeders:
0
Information:
No information.
Leechers:
0
File size:
10.1 GiB
Completed:
19
Info hash:
e45e2c16a520e76a6bc5e2d82849e02bad6b744e
General Unique ID : 177022434019436241986533257326107795519 (0x852D47D8B8513214A0937737B04FA03F) Complete name : Akira.1988.German.DL.DTS.1080p.BluRay.x264-STARS.mkv Format : Matroska Format version : Version 4 File size : 10.1 GiB Duration : 2 h 4 min Overall bit rate : 11.6 Mb/s Movie name : AKIRA - 1080P - STARS Encoded date : UTC 2014-11-04 07:29:48 Writing application : mkvmerge v6.1.0 ('Old Devil') built on Mar 2 2013 14:32:37 Writing library : libebml v1.3.0 + libmatroska v1.4.0 Video ID : 1 Format : AVC Format/Info : Advanced Video Codec Format profile : High@L4.1 Format settings : CABAC / 4 Ref Frames Format settings, CABAC : Yes Format settings, RefFrames : 4 frames Codec ID : V_MPEG4/ISO/AVC Duration : 2 h 4 min Bit rate : 8 926 kb/s Width : 1 888 pixels Height : 1 016 pixels Display aspect ratio : 1.85:1 Frame rate mode : Constant Frame rate : 23.976 (24000/1001) FPS Color space : YUV Chroma subsampling : 4:2:0 Bit depth : 8 bits Scan type : Progressive Bits/(Pixel*Frame) : 0.194 Stream size : 7.76 GiB (77%) Title : AKIRA - 1080P - STARS Writing library : x264 core 142 r2479 dd79a61 Encoding settings : cabac=1 / ref=4 / deblock=1:0:0 / analyse=0x3:0x133 / me=umh / subme=7 / psy=1 / psy_rd=1.00:0.00 / mixed_ref=1 / me_range=16 / chroma_me=1 / trellis=1 / 8x8dct=1 / cqm=0 / deadzone=21,11 / fast_pskip=0 / chroma_qp_offset=-2 / threads=12 / lookahead_threads=2 / sliced_threads=0 / nr=0 / decimate=1 / interlaced=0 / bluray_compat=0 / constrained_intra=0 / bframes=3 / b_pyramid=2 / b_adapt=1 / b_bias=0 / direct=1 / weightb=1 / open_gop=0 / weightp=1 / keyint=250 / keyint_min=23 / scenecut=40 / intra_refresh=0 / rc_lookahead=40 / rc=crf / mbtree=1 / crf=20.0 / qcomp=0.60 / qpmin=0 / qpmax=69 / qpstep=4 / ip_ratio=1.40 / aq=1:1.00 Default : Yes Forced : Yes Audio #1 ID : 2 Format : DTS Format/Info : Digital Theater Systems Codec ID : A_DTS Duration : 2 h 4 min Bit rate mode : Constant Bit rate : 1 509 kb/s Channel(s) : 6 channels Channel layout : C L R Ls Rs LFE Sampling rate : 48.0 kHz Frame rate : 93.750 FPS (512 SPF) Bit depth : 24 bits Compression mode : Lossy Stream size : 1.31 GiB (13%) Title : GER - 5.1 DTS (2005) Language : German Default : Yes Forced : Yes Audio #2 ID : 3 Format : DTS Format/Info : Digital Theater Systems Codec ID : A_DTS Duration : 2 h 4 min Bit rate mode : Constant Bit rate : 768 kb/s Channel(s) : 2 channels Channel layout : L R Sampling rate : 48.0 kHz Frame rate : 93.750 FPS (512 SPF) Bit depth : 24 bits Compression mode : Lossy Stream size : 684 MiB (7%) Title : GER - 2.0 DTS (1991) Language : German Default : No Forced : No Audio #3 ID : 4 Format : AC-3 Format/Info : Audio Coding 3 Commercial name : Dolby Digital Codec ID : A_AC3 Duration : 2 h 4 min Bit rate mode : Constant Bit rate : 192 kb/s Channel(s) : 2 channels Channel layout : L R Sampling rate : 48.0 kHz Frame rate : 31.250 FPS (1536 SPF) Bit depth : 16 bits Compression mode : Lossy Stream size : 171 MiB (2%) Title : JPN - 2.0 AC3 Language : Japanese Service kind : Complete Main Default : No Forced : No Text #1 ID : 5 Format : UTF-8 Codec ID : S_TEXT/UTF8 Codec ID/Info : UTF-8 Plain Text Title : GER - FORCED Language : German Default : Yes Forced : Yes Text #2 ID : 6 Format : UTF-8 Codec ID : S_TEXT/UTF8 Codec ID/Info : UTF-8 Plain Text Title : GER - SUBS Language : German Default : No Forced : No Menu 00:00:00.000 : en:00:00:00.000 00:03:04.559 : en:00:03:04.559 00:05:25.283 : en:00:05:25.283 00:06:58.918 : en:00:06:58.918 00:10:33.508 : en:00:10:33.508 00:12:11.731 : en:00:12:11.731 00:16:54.138 : en:00:16:54.138 00:20:37.736 : en:00:20:37.736 00:23:45.341 : en:00:23:45.341 00:26:45.020 : en:00:26:45.020 00:29:10.082 : en:00:29:10.082 00:32:10.512 : en:00:32:10.512 00:35:21.578 : en:00:35:21.578 00:38:14.250 : en:00:38:14.250 00:41:23.147 : en:00:41:23.147 00:45:05.703 : en:00:45:05.703 00:47:40.107 : en:00:47:40.107 00:53:16.485 : en:00:53:16.485 00:57:16.850 : en:00:57:16.850 01:02:32.207 : en:01:02:32.207 01:05:30.176 : en:01:05:30.176 01:08:36.696 : en:01:08:36.696 01:11:11.058 : en:01:11:11.058 01:14:30.466 : en:01:14:30.466 01:18:12.521 : en:01:18:12.521 01:21:31.428 : en:01:21:31.428 01:25:57.736 : en:01:25:57.736 01:30:47.359 : en:01:30:47.359 01:36:05.510 : en:01:36:05.510 01:39:38.806 : en:01:39:38.806 01:41:54.900 : en:01:41:54.900 01:45:42.795 : en:01:45:42.795 01:49:21.680 : en:01:49:21.680 01:52:23.987 : en:01:52:23.987 01:56:06.960 : en:01:56:06.960 01:58:25.015 : en:01:58:25.015

File list

  • Akira.1988.German.DL.DTS.1080p.BluRay.x264-STARS.mkv (10.1 GiB)