[HorribleSubs] Ueno-san wa Bukiyou - 06 [1080p].mkv

Category:
Date:
2019-02-10 16:50 UTC
Submitter:
Seeders:
202
Information:
Leechers:
1
File size:
486.3 MiB
Completed:
4200
Info hash:
06b5217c3cf22bcd6a1faea0d32b905fba11b3bc
[#horriblesubs@irc.rizon.net](irc://irc.rizon.net/horriblesubs) Join us in our IRC channel for XDCC downloads. Also come join our official community discord: https://discord.gg/R6Cv6fB

File list

  • [HorribleSubs] Ueno-san wa Bukiyou - 06 [1080p].mkv (486.3 MiB)

Comments - 6

\>486.3 MiB CR/VRV rip?
@drte This isn't 24 Min long like always. Only 10 mins so it's normal
@Ham178 No it's not normal, look at the rest of the 1080p file for this series they are only 180-190 meg this is almost 3 times that
wow dat size LOL Heres the media info for those curious but dun want to download it, even erai raws is blaoted, the official(funi/CR) encoder is drunk again I see.. LOL General Unique ID : 0 (0x0) Complete name : [HorribleSubs] Ueno-san wa Bukiyou - 06 [1080p].mkv Format : Matroska Format version : Version 4 File size : 486 MiB Duration : 12 min 30 s Overall bit rate : 5 434 kb/s Encoded date : UTC 2010-02-22 21:41:29 Writing application : no_variable_data Writing library : no_variable_data Attachments : OpenSans-Semibold.ttf
Video ID : 1 Format : AVC Format/Info : Advanced Video Codec Format profile : High@L4 Format settings : CABAC / 4 Ref Frames Format settings, CABAC : Yes Format settings, ReFrames : 4 frames Codec ID : V_MPEG4/ISO/AVC Duration : 12 min 30 s Bit rate : 5 301 kb/s Width : 1 920 pixels Height : 1 080 pixels Display aspect ratio : 16:9 Frame rate mode : Constant Frame rate : 23.976 (24000/1001) FPS Color space : YUV Chroma subsampling : 4:2:0 Bit depth : 8 bits Scan type : Progressive Bits/(Pixel*Frame) : 0.107 Stream size : 474 MiB (98%) Writing library : x264 core 142 Encoding settings : cabac=1 / ref=4 / deblock=1:1:1 / analyse=0x3:0x113 / me=umh / subme=8 / psy=1 / psy_rd=0.40:0.00 / mixed_ref=1 / me_range=16 / chroma_me=1 / trellis=1 / 8x8dct=1 / cqm=0 / deadzone=21,11 / fast_pskip=1 / chroma_qp_offset=-2 / threads=12 / lookahead_threads=2 / sliced_threads=0 / nr=0 / decimate=1 / interlaced=0 / bluray_compat=0 / constrained_intra=0 / bframes=3 / b_pyramid=2 / b_adapt=2 / b_bias=0 / direct=3 / weightb=1 / open_gop=0 / weightp=2 / keyint=9999999 / keyint_min=5000000 / scenecut=0 / intra_refresh=0 / rc_lookahead=50 / rc=crf / mbtree=1 / crf=15.0 / qcomp=0.60 / qpmin=0 / qpmax=69 / qpstep=4 / vbv_maxrate=8000 / vbv_bufsize=12000 / crf_max=0.0 / nal_hrd=none / filler=0 / ip_ratio=1.40 / aq=1:0.60 Default : Yes Forced : No
Audio ID : 2 Format : AAC LC Format/Info : Advanced Audio Codec Low Complexity Codec ID : A_AAC-2 Duration : 12 min 30 s Bit rate : 128 kb/s Channel(s) : 2 channels Channel layout : L R Sampling rate : 44.1 kHz Frame rate : 43.066 FPS (1024 SPF) Compression mode : Lossy Delay relative to video : -83 ms Stream size : 11.5 MiB (2%) Language : Japanese Default : Yes Forced : No Text ID : 3 Format : ASS Codec ID : S_TEXT/ASS Codec ID/Info : Advanced Sub Station Alpha Duration : 10 min 28 s Bit rate : 130 b/s Count of elements : 158 Compression mode : Lossless Stream size : 9.99 KiB (0%) Language : English Default : Yes Forced : No