[REW] Fate Zero - 2011 S01 Vol. 2 [BD][Dual audio - 1080p]

Category:
Date:
2019-02-10 13:02 UTC
Submitter:
Seeders:
0
Information:
No information.
Leechers:
1
File size:
29.0 GiB
Completed:
28
Info hash:
b1eb18e13abf08e62ec89900b04350abaafc3916
## [REW] Fate Zero - 2011 S01 Vol. 2 (BD) 2/3 ### The following data mostly applies to all files. >--- >General Complete name : Fate Zero - 2011 S01 E05 - The Vicious Beast Roars (1080p).mkv Format : Matroska Format version : Version 4 File size : 6.87 GiB Duration : 23 min 42 s Overall bit rate mode : Variable Overall bit rate : 41.5 Mb/s Movie name : Fate Zero - 2011 S01 E05 - The Vicious Beast Roars >Video ID : 1 Format : AVC Format/Info : Advanced Video Codec Format profile : High@L4.1 Format settings : CABAC / 4 Ref Frames Format settings, CABAC : Yes Format settings, ReFrames : 4 frames Codec ID : V_MPEG4/ISO/AVC Duration : 23 min 42 s Bit rate mode : Variable Bit rate : 38.7 Mb/s Maximum bit rate : 40.0 Mb/s Width : 1 920 pixels Height : 1 080 pixels Display aspect ratio : 16:9 Frame rate mode : Constant Frame rate : 23.976 (24000/1001) FPS Color space : YUV Chroma subsampling : 4:2:0 Bit depth : 8 bits Scan type : Progressive Bits/(Pixel*Frame) : 0.779 Stream size : 6.41 GiB (93%) Title : Fate Zero - 2011 S01 E05 Default : Yes Forced : No >Audio #1 ID : 2 Format : AC-3 Format/Info : Audio Coding 3 Commercial name : Dolby Digital Codec ID : A_AC3 Duration : 23 min 42 s Bit rate mode : Constant Bit rate : 192 kb/s Channel(s) : 2 channels Channel layout : L R Sampling rate : 48.0 kHz Frame rate : 31.250 FPS (1536 SPF) Bit depth : 16 bits Compression mode : Lossy Stream size : 32.6 MiB (0%) Title : English 2.0 AC-3 Language : English Service kind : Complete Main Default : Yes Forced : No >Audio #2 ID : 3 Format : PCM Format settings : Little / Signed Codec ID : A_PCM/INT/LIT Duration : 23 min 42 s Bit rate mode : Constant Bit rate : 2 304 kb/s Channel(s) : 2 channels Sampling rate : 48.0 kHz Frame rate : 200.000 FPS (240 SPF) Bit depth : 24 bits Stream size : 391 MiB (6%) Title : Japanese 2.0 PCM Language : Japanese Default : No Forced : No >Text #1 ID : 4 Format : PGS Muxing mode : zlib Codec ID : S_HDMV/PGS Codec ID/Info : Picture based subtitle format used on BDs/HD-DVDs Duration : 21 min 28 s Bit rate : 102 kb/s Count of elements : 426 Stream size : 15.6 MiB (0%) Title : Official Signs & Songs Language : English Default : Yes Forced : No >Text #2 ID : 5 Format : ASS Codec ID : S_TEXT/ASS Codec ID/Info : Advanced Sub Station Alpha Duration : 23 min 35 s Bit rate : 269 b/s Count of elements : 485 Compression mode : Lossless Stream size : 46.6 KiB (0%) Title : Styled Subtitles **(UTW)** Language : English Default : No Forced : No >Text #3 ID : 6 Format : PGS Muxing mode : zlib Codec ID : S_HDMV/PGS Codec ID/Info : Picture based subtitle format used on BDs/HD-DVDs Duration : 23 min 35 s Bit rate : 272 kb/s Count of elements : 2258 Stream size : 46.0 MiB (1%) Title : Official Subtitles Language : English Default : No Forced : No >Menu 00:00:00.000 : :Chapter 01 00:02:00.036 : :Chapter 02 00:03:30.001 : :Chapter 03 00:05:58.316 : :Chapter 04 00:11:07.958 : :Chapter 05 00:12:17.236 : :Chapter 06 00:19:16.864 : :Chapter 07 00:21:56.940 : :Chapter 08 00:23:26.947 : :Chapter 09 You can use it for whatever you want, but at least give a proper credit.

File list

  • Fate Zero - 2011 S01
    • Fate Zero - 2011 S01 - BD Menu 2 (1080p).mkv (222.8 MiB)
    • Fate Zero - 2011 S01 - Ending (1080p).mkv (437.3 MiB)
    • Fate Zero - 2011 S01 - Opening (1080p).mkv (440.8 MiB)
    • Fate Zero - 2011 S01 E05 - The Vicious Beast Roars (1080p).mkv (6.9 GiB)
    • Fate Zero - 2011 S01 E06 - Night of Schemes (1080p).mkv (7.0 GiB)
    • Fate Zero - 2011 S01 E07 - The Evil Forest (1080p).mkv (7.2 GiB)
    • Fate Zero - 2011 S01 E08 - The Magus Killer (1080p).mkv (6.9 GiB)
Might want to consider using the English 2.0 16bit PCM audio from the UKBD, instead of AC-3 tracks from the USBD.

Onyrew (uploader)

User
Thanks, I will check it out. PS: I'm deeply sorry, but my upload speed sucks and there is no better connection at the moment...
Fate zero was released by Aniplex, they don't use ac-3.

Onyrew (uploader)

User
Unfortunately the US edition was released with it. [BOX 1](https://www.blu-ray.com/movies/Fate-Zero-Box-Set-1-Blu-ray/77943/#Overview) - "English: Dolby Digital 2.0 (192kbps)" Wiki: "This format has different names: Dolby Digital DD (an abbreviation for Dolby Digital, often combined with channel count; for instance, DD 2.0, DD 5.1) AC-3 (Audio Codec 3, Advanced Codec 3, Acoustic Coder 3. [These are backronyms. Adaptive Transform Acoustic Coding 3 is a separate format developed by Sony.])"