[Neutrinome] Osake wa Fuufu ni Natte Kara (S1+ONA) - VOSTFR [1080p BDRip FLAC] + DDL

Category:
Date:
2019-01-21 22:10 UTC
Submitter:
Seeders:
4
Information:
Leechers:
0
File size:
3.1 GiB
Completed:
166
Info hash:
d2e867e9a46747b79b9fd8da5810bc62dadea281
Osake wa Fuufu ni Natte Kara ====== *** ![alt text](https://www.thetvdb.com/banners/posters/333232-1.jpg) *** * **Date de sortie** : 2017-2018 * **Durée** : 14*3min * **Licencié** : Crunchyroll * **Vidéo** : UCCUSS * **Sous-titre** : Crunchyroll * **Sous-titre ONA** : Kodoku no Kawarini [KnK] * **Lien DDL** : [Uptobox](https://uptobox.com/0370b7bd0h4u) *** **NFO** General Unique ID : 183017022877701097613483647378127309101 (0x89AFCBE56918461143B74077ABE7C92D) Format : Matroska Format version : Version 4 File size : 203 MiB Duration : 3 min 2 s Overall bit rate mode : Variable Overall bit rate : 9 367 kb/s Encoded date : UTC 2019-01-21 21:57:15 Writing application : mkvmerge v30.1.0 ('Forever And More') 64-bit Writing library : libebml v1.3.6 + libmatroska v1.4.9 Video ID : 1 Format : AVC Format/Info : Advanced Video Codec Format profile : High@L4.1 Format settings : CABAC / 4 Ref Frames Format settings, CABAC : Yes Format settings, ReFrames : 4 frames Codec ID : V_MPEG4/ISO/AVC Duration : 3 min 2 s Bit rate : 7 984 kb/s Width : 1 920 pixels Height : 1 080 pixels Display aspect ratio : 16:9 Frame rate mode : Constant Frame rate : 23.976 (24000/1001) FPS Color space : YUV Chroma subsampling : 4:2:0 Bit depth : 8 bits Scan type : Progressive Bits/(Pixel*Frame) : 0.161 Stream size : 173 MiB (85%) Title : [UCCUSS] Writing library : x264 core 155 r2901 7d0ff22 Encoding settings : cabac=1 / ref=4 / deblock=1:-1:-1 / analyse=0x3:0x133 / me=umh / subme=9 / psy=1 / psy_rd=0.85:0.00 / mixed_ref=1 / me_range=32 / chroma_me=1 / trellis=2 / 8x8dct=1 / cqm=0 / deadzone=21,11 / fast_pskip=1 / chroma_qp_offset=-4 / threads=4 / lookahead_threads=1 / sliced_threads=0 / nr=0 / decimate=0 / interlaced=0 / bluray_compat=0 / constrained_intra=0 / bframes=5 / b_pyramid=2 / b_adapt=2 / b_bias=0 / direct=2 / weightb=1 / open_gop=0 / weightp=2 / keyint=230 / keyint_min=23 / scenecut=40 / intra_refresh=0 / rc_lookahead=50 / rc=crf / mbtree=1 / crf=15.0 / qcomp=0.70 / qpmin=10 / qpmax=42 / qpstep=4 / vbv_maxrate=50000 / vbv_bufsize=50000 / crf_max=0.0 / nal_hrd=none / filler=0 / ip_ratio=1.40 / aq=1:0.90 Default : Yes Forced : No Audio ID : 2 Format : FLAC Format/Info : Free Lossless Audio Codec Codec ID : A_FLAC Duration : 3 min 2 s Bit rate mode : Variable Bit rate : 1 381 kb/s Channel(s) : 2 channels Channel layout : L R Sampling rate : 48.0 kHz Frame rate : 11.724 FPS (4094 SPF) Bit depth : 24 bits Compression mode : Lossless Stream size : 30.0 MiB (15%) Writing library : libFLAC 1.3.2 (UTC 2017-01-01) Language : Japanese Default : Yes Forced : No Text ID : 3 Format : ASS Codec ID : S_TEXT/ASS Codec ID/Info : Advanced Sub Station Alpha Duration : 2 min 59 s Bit rate : 190 b/s Count of elements : 63 Compression mode : Lossless Stream size : 4.19 KiB (0%) Title : Français Language : French Default : Yes Forced : No

File list

  • [Neutrinome] Osake wa Fuufu ni Natte kara Yuzu Atsukan - VOSTFR [1080p BDRip FLAC]
    • [KnK] Osake wa Fuufu ni Natte kara Yuzu Atsukan - 14 - VOSTFR [1080p AAC].mkv (45.0 MiB)
    • [Neutrinome] Osake wa Fuufu ni Natte kara Yuzu Atsukan - 01 - VOSTFR [1080p BDRip FLAC].mkv (203.3 MiB)
    • [Neutrinome] Osake wa Fuufu ni Natte kara Yuzu Atsukan - 02 - VOSTFR [1080p BDRip FLAC].mkv (252.3 MiB)
    • [Neutrinome] Osake wa Fuufu ni Natte kara Yuzu Atsukan - 03 - VOSTFR [1080p BDRip FLAC].mkv (225.5 MiB)
    • [Neutrinome] Osake wa Fuufu ni Natte kara Yuzu Atsukan - 04 - VOSTFR [1080p BDRip FLAC].mkv (239.2 MiB)
    • [Neutrinome] Osake wa Fuufu ni Natte kara Yuzu Atsukan - 05 - VOSTFR [1080p BDRip FLAC].mkv (242.0 MiB)
    • [Neutrinome] Osake wa Fuufu ni Natte kara Yuzu Atsukan - 06 - VOSTFR [1080p BDRip FLAC].mkv (240.4 MiB)
    • [Neutrinome] Osake wa Fuufu ni Natte kara Yuzu Atsukan - 07 - VOSTFR [1080p BDRip FLAC].mkv (236.8 MiB)
    • [Neutrinome] Osake wa Fuufu ni Natte kara Yuzu Atsukan - 08 - VOSTFR [1080p BDRip FLAC].mkv (235.6 MiB)
    • [Neutrinome] Osake wa Fuufu ni Natte kara Yuzu Atsukan - 09 - VOSTFR [1080p BDRip FLAC].mkv (218.5 MiB)
    • [Neutrinome] Osake wa Fuufu ni Natte kara Yuzu Atsukan - 10 - VOSTFR [1080p BDRip FLAC].mkv (222.0 MiB)
    • [Neutrinome] Osake wa Fuufu ni Natte kara Yuzu Atsukan - 11 - VOSTFR [1080p BDRip FLAC].mkv (262.5 MiB)
    • [Neutrinome] Osake wa Fuufu ni Natte kara Yuzu Atsukan - 12 - VOSTFR [1080p BDRip FLAC].mkv (307.6 MiB)
    • [Neutrinome] Osake wa Fuufu ni Natte kara Yuzu Atsukan - 13 - VOSTFR [1080p BDRip FLAC].mkv (219.4 MiB)