[Komorebi-raws] Eromanga Sensei OVA 01-02 [BD 1080p x264-10bit FLAC]

Category:
Date:
2019-01-15 20:28 UTC
Submitter:
Seeders:
2
Information:
#komorebi @ irc.rizon.net
Leechers:
0
File size:
994.2 MiB
Completed:
397
Info hash:
07dbf073abe5b42db90a6e28c2de14a553e7803b
2.6x smaller than ReinForce, transparent, nnedi3 filtered Source: https://ptpimg.me/0e6691.png Encode: https://ptpimg.me/365gj5.png Source: https://ptpimg.me/hx1r7c.png Encode:https://ptpimg.me/6f7h7z.png ```General Unique ID : 80578460446996738074340372898380176489 (0x3C9ED8D3FE16AC8A7B367CD4C346DC69) Complete name : [Komorebi-raws] Eromanga Sensei OVA [BD 1080p x264-10bit FLAC]\[Komorebi-raws] Eromanga Sensei OVA S00E01 (BD 1080p) [B749F7C0].mkv Format : Matroska Format version : Version 4 / Version 2 File size : 518 MiB Duration : 23 min 40 s Overall bit rate mode : Variable Overall bit rate : 3 062 kb/s Movie name : [Komorebi-raws] Eromanga Sensei OVA 1 Encoded date : UTC 2019-01-15 20:14:17 Writing application : mkvmerge v27.0.0 ('Metropolis') 64-bit Writing library : libebml v1.3.6 + libmatroska v1.4.9 Video ID : 1 Format : AVC Format/Info : Advanced Video Codec Format profile : High 10@L5.1 Format settings : CABAC / 16 Ref Frames Format settings, CABAC : Yes Format settings, RefFrames : 16 frames Codec ID : V_MPEG4/ISO/AVC Duration : 23 min 40 s Bit rate : 2 411 kb/s Width : 1 920 pixels Height : 1 080 pixels Display aspect ratio : 16:9 Frame rate mode : Constant Frame rate : 23.976 (24000/1001) FPS Color space : YUV Chroma subsampling : 4:2:0 Bit depth : 10 bits Scan type : Progressive Bits/(Pixel*Frame) : 0.048 Stream size : 408 MiB (79%) Title : Episode Writing library : x264 core 157 r2935 545de2f Encoding settings : cabac=1 / ref=16 / deblock=1:1:1 / analyse=0x3:0x133 / me=umh / subme=11 / psy=1 / psy_rd=1.00:0.00 / mixed_ref=1 / me_range=32 / chroma_me=1 / trellis=2 / 8x8dct=1 / cqm=0 / deadzone=21,11 / fast_pskip=0 / chroma_qp_offset=-2 / threads=20 / lookahead_threads=5 / sliced_threads=0 / nr=0 / decimate=0 / interlaced=0 / bluray_compat=0 / constrained_intra=0 / bframes=10 / b_pyramid=2 / b_adapt=2 / b_bias=0 / direct=3 / weightb=1 / open_gop=0 / weightp=2 / keyint=250 / keyint_min=23 / scenecut=40 / intra_refresh=0 / rc_lookahead=250 / rc=crf / mbtree=1 / crf=16.0 / qcomp=0.70 / qpmin=0 / qpmax=81 / qpstep=4 / ip_ratio=1.40 / aq=2:0.85 Language : Japanese Default : Yes Forced : Yes Audio ID : 2 Format : FLAC Format/Info : Free Lossless Audio Codec Codec ID : A_FLAC Duration : 23 min 40 s Bit rate mode : Variable Bit rate : 649 kb/s Channel(s) : 2 channels Channel positions : Front: L R Sampling rate : 48.0 kHz Frame rate : 11.719 FPS (4096 SPF) Bit depth : 16 bits Delay relative to video : 24 ms Stream size : 110 MiB (21%) Title : Japanese Audio Writing library : libFLAC 20080709 (UTC 2008-07-09) Language : Japanese Default : Yes Forced : Yes```

File list

Thanks <3
can anyone sub these please?