[NSBC] QUEEN E01 [WEBDL] [1080p]

Category:
Date:
2019-01-12 05:22 UTC
Submitter:
Seeders:
8
Information:
TlNCQy50bw==
Leechers:
1
File size:
1.3 GiB
Completed:
752
Info hash:
355d07907017a0aa9d5a375c3392a92935e729a5
> Subtitles | > --- | > [Here](https://subscene.com/subtitles/scandal-senmon-bengoshi-queen-queen) | ![POSTERS](http://img.topddl.net/images/ce031f52bcfafb674f91e7e2824f0822.jpg "") ![Thumbnail](http://img.topddl.net/images/1b24ff75bb9026be978a8215a2797015.jpg "") ``` General Format : MPEG-4 Format profile : Base Media Codec ID : isom File size : 1.25 GiB Duration : 56mn 43s Overall bit rate mode : Variable Overall bit rate : 3 167 Kbps Video ID : 1 Format : AVC Format/Info : Advanced Video Codec Format profile : High@L4.0 Format settings, CABAC : Yes Format settings, ReFrames : 4 frames Codec ID : avc1 Codec ID/Info : Advanced Video Coding Duration : 56mn 43s Duration_FirstFrame : 42ms Bit rate : 2 996 Kbps Width : 1 912 pixels Original width : 1 920 pixels Height : 1 088 pixels Original height : 1 080 pixels Display aspect ratio : 16:9 Original display aspect ratio : 16:9 Frame rate mode : Constant Frame rate : 24.000 fps Color space : YUV Chroma subsampling : 4:2:0 Bit depth : 8 bits Scan type : Progressive Bits/(Pixel*Frame) : 0.060 Stream size : 1.19 GiB (95%) Audio ID : 2 Format : AAC Format/Info : Advanced Audio Codec Format profile : LC Codec ID : 40 Duration : 56mn 43s Source duration : 56mn 43s Bit rate mode : Variable Bit rate : 162 Kbps Maximum bit rate : 499 Kbps Channel(s) : 2 channels Channel positions : Front: L R Sampling rate : 44.1 KHz Compression mode : Lossy Stream size : 65.6 MiB (5%) Source stream size : 65.6 MiB (5%) mdhd_Duration : 3403720 ```

File list

  • [NSBC] QUEEN E01 [WEBDL] [1080p].mp4 (1.3 GiB)
Hi! how can I join the NSBC website?

p1g

User
What's NSBC site?