[Arukoru] Mahou Shoujo Tokushusen Asuka (Magical Girl Spec-Ops Asuka) - Episode 01 - The Magical Girl Comes Back [1080p x265 10bit WEB Multi-Sub AAC]

Category:
Date:
2019-01-12 02:54 UTC
Submitter:
Seeders:
11
Information:
No information.
Leechers:
0
File size:
321.1 MiB
Completed:
110
Info hash:
f8f84558feba7245105d11f8a818157a19a287c8
[![Magical-Girl-Spec-Ops-Asuka-Episode-1-The-Magical-Girl-Comes.png](https://i.postimg.cc/ydD0NJV1/Magical-Girl-Spec-Ops-Asuka-Episode-1-The-Magical-Girl-Comes.png)](https://postimg.cc/62N8jp2g) [![Magical-Girl-Spec-Ops-Asuka-Episode-1-The-Magical-Girl-Comes.png](https://i.postimg.cc/pT3z52TD/Magical-Girl-Spec-Ops-Asuka-Episode-1-The-Magical-Girl-Comes.png)](https://postimg.cc/Hc4Vf1bx) [![Magical-Girl-Spec-Ops-Asuka-Episode-1-The-Magical-Girl-Comes.png](https://i.postimg.cc/c18Qy89T/Magical-Girl-Spec-Ops-Asuka-Episode-1-The-Magical-Girl-Comes.png)](https://postimg.cc/s1sB51RZ) Format : Matroska Format version : Version 4 File size : 321 MiB Duration : 24 min 12 s Overall bit rate : 1 855 kb/s Encoded date : UTC 2019-01-12 02:48:05 Writing application : mkvmerge v29.0.0 ('Like It Or Not') 64-bit Writing library : libebml v1.3.6 + libmatroska v1.4.9 / Lavf58.20.100 Video ID : 1 Format : HEVC Format/Info : High Efficiency Video Coding Format profile : Main 10@L4@Main Codec ID : V_MPEGH/ISO/HEVC Duration : 24 min 12 s Bit rate : 1 724 kb/s Width : 1 920 pixels Height : 1 080 pixels Display aspect ratio : 16:9 Frame rate mode : Constant Frame rate : 23.976 (24000/1001) FPS Color space : YUV Chroma subsampling : 4:2:0 Bit depth : 10 bits Bits/(Pixel*Frame) : 0.035 Stream size : 298 MiB (93%) Writing library : x265 2.9:[Windows][GCC 7.1.0][64 bit] 10bit Encoding settings : cpuid=1111039 / frame-threads=2 / numa-pools=4 / wpp / no-pmode / no-pme / no-psnr / no-ssim / log-level=2 / input-csp=1 / input-res=1920x1080 / interlace=0 / total-frames=0 / level-idc=0 / high-tier=1 / uhd-bd=0 / ref=3 / no-allow-non-conformance / no-repeat-headers / annexb / no-aud / no-hrd / info / hash=0 / no-temporal-layers / open-gop / min-keyint=24 / keyint=240 / gop-lookahead=0 / bframes=4 / b-adapt=0 / b-pyramid / bframe-bias=0 / rc-lookahead=15 / lookahead-slices=6 / scenecut=40 / radl=0 / no-intra-refresh / ctu=64 / min-cu-size=8 / no-rect / no-amp / max-tu-size=32 / tu-inter-depth=1 / tu-intra-depth=1 / limit-tu=0 / rdoq-level=0 / dynamic-rd=0.00 / no-ssim-rd / signhide / no-tskip / nr-intra=0 / nr-inter=0 / no-constrained-intra / strong-intra-smoothing / max-merge=2 / limit-refs=3 / no-limit-modes / me=1 / subme=2 / merange=57 / temporal-mvp / weightp / no-weightb / no-analyze-src-pics / deblock=0:0 / sao / no-sao-non-deblock / rd=2 / no-early-skip / rskip / fast-intra / no-tskip-fast / no-cu-lossless / no-b-intra / no-splitrd-skip / rdpenalty=0 / psy-rd=2.00 / psy-rdoq=0.00 / no-rd-refine / no-lossless / cbqpoffs=0 / crqpoffs=0 / rc=crf / crf=20.0 / qcomp=0.60 / qpstep=4 / stats-write=0 / stats-read=0 / ipratio=1.40 / pbratio=1.30 / aq-mode=1 / aq-strength=1.00 / cutree / zone-count=0 / no-strict-cbr / qg-size=32 / no-rc-grain / qpmax=69 / qpmin=0 / no-const-vbv / sar=1 / overscan=0 / videoformat=5 / range=0 / colorprim=1 / transfer=1 / colormatrix=1 / chromaloc=0 / display-window=0 / max-cll=0,0 / min-luma=0 / max-luma=1023 / log2-max-poc-lsb=8 / vui-timing-info / vui-hrd-info / slices=1 / no-opt-qp-pps / no-opt-ref-list-length-pps / no-multi-pass-opt-rps / scenecut-bias=0.05 / no-opt-cu-delta-qp / no-aq-motion / no-hdr / no-hdr-opt / no-dhdr10-opt / no-idr-recovery-sei / analysis-reuse-level=5 / scale-factor=0 / refine-intra=0 / refine-inter=0 / refine-mv=0 / no-limit-sao / ctu-info=0 / no-lowpass-dct / refine-mv-type=0 / copy-pic=1 / max-ausize-factor=1.0 / no-dynamic-refine / no-single-sei Default : Yes Forced : No Color range : Limited Color primaries : BT.709 Transfer characteristics : BT.709 Matrix coefficients : BT.709 Audio ID : 2 Format : AAC LC Format/Info : Advanced Audio Codec Low Complexity Codec ID : A_AAC-2 Duration : 24 min 12 s Bit rate : 128 kb/s Channel(s) : 2 channels Channel layout : L R Sampling rate : 44.1 kHz Frame rate : 43.066 FPS (1024 SPF) Compression mode : Lossy Stream size : 22.2 MiB (7%) Language : Japanese Default : Yes Forced : No Text #1 ID : 3 Format : ASS Codec ID : S_TEXT/ASS Codec ID/Info : Advanced Sub Station Alpha Duration : 23 min 51 s Bit rate : 116 b/s Count of elements : 348 Compression mode : Lossless Stream size : 20.3 KiB (0%) Language : English Default : Yes Forced : Yes Text #2 ID : 4 Format : ASS Codec ID : S_TEXT/ASS Codec ID/Info : Advanced Sub Station Alpha Duration : 23 min 51 s Bit rate : 144 b/s Count of elements : 346 Compression mode : Lossless Stream size : 25.2 KiB (0%) Language : Arabic Default : No Forced : No Text #3 ID : 5 Format : ASS Codec ID : S_TEXT/ASS Codec ID/Info : Advanced Sub Station Alpha Duration : 23 min 51 s Bit rate : 114 b/s Count of elements : 344 Compression mode : Lossless Stream size : 20.1 KiB (0%) Language : Spanish Default : No Forced : No Text #4 ID : 6 Format : ASS Codec ID : S_TEXT/ASS Codec ID/Info : Advanced Sub Station Alpha Duration : 23 min 51 s Bit rate : 114 b/s Count of elements : 344 Compression mode : Lossless Stream size : 20.1 KiB (0%) Title : Mexico Language : Spanish Default : No Forced : No Text #5 ID : 7 Format : ASS Codec ID : S_TEXT/ASS Codec ID/Info : Advanced Sub Station Alpha Duration : 23 min 51 s Bit rate : 123 b/s Count of elements : 346 Compression mode : Lossless Stream size : 21.7 KiB (0%) Language : Italian Default : No Forced : No Text #6 ID : 8 Format : ASS Codec ID : S_TEXT/ASS Codec ID/Info : Advanced Sub Station Alpha Duration : 23 min 51 s Bit rate : 119 b/s Count of elements : 348 Compression mode : Lossless Stream size : 20.8 KiB (0%) Language : Portuguese Default : No Forced : No Source: Crunchyroll WEB-DL

File list

  • [Arukoru] Mahou Shoujo Tokushusen Asuka (Magical Girl Spec-Ops Asuka) - Episode 01 - The Magical Girl Comes Back [1080p x265 10bit WEB Multi-Sub AAC].mkv (321.1 MiB)

Comments - 2

I don't know if you made the subs or ripped them off another subgroup, but she's supposed to be Magical Girl RUPTURE, not RAPTURE. Because she RUPTURES people. With her knife.

Arukoru (uploader)

User
@okyaku-san subs are from crunchyroll