[Arukoru] Go-Toubun no Hanayome (The Quintessential Quintuplets) - Episode 01 - The Quintessential Quintuplets [1080p x265 10bit WEB Multi-Sub AAC]

Category:
Date:
2019-01-12 02:27 UTC
Submitter:
Seeders:
15
Information:
No information.
Leechers:
1
File size:
350.7 MiB
Completed:
466
Info hash:
78eee2ca74e57e6d07c5d2e6d3f3f1dc42d499e2
[![Arukoru-Go-Toubun-no-Hanayome-The-Quintessential-Quintuplets.png](https://i.postimg.cc/VshhfMWh/Arukoru-Go-Toubun-no-Hanayome-The-Quintessential-Quintuplets.png)](https://postimg.cc/Dmq65SDQ) [![Arukoru-Go-Toubun-no-Hanayome-The-Quintessential-Quintuplets.png](https://i.postimg.cc/mgf6MsqN/Arukoru-Go-Toubun-no-Hanayome-The-Quintessential-Quintuplets.png)](https://postimg.cc/4mP5krXm) [![Arukoru-Go-Toubun-no-Hanayome-The-Quintessential-Quintuplets.png](https://i.postimg.cc/Sx61fPb0/Arukoru-Go-Toubun-no-Hanayome-The-Quintessential-Quintuplets.png)](https://postimg.cc/5Xtmxntp) Format : Matroska Format version : Version 4 File size : 351 MiB Duration : 24 min 6 s Overall bit rate : 2 034 kb/s Encoded date : UTC 2019-01-12 02:18:44 Writing application : mkvmerge v29.0.0 ('Like It Or Not') 64-bit Writing library : libebml v1.3.6 + libmatroska v1.4.9 / Lavf58.20.100 Video ID : 1 Format : HEVC Format/Info : High Efficiency Video Coding Format profile : Main 10@L4@Main Codec ID : V_MPEGH/ISO/HEVC Duration : 24 min 4 s Bit rate : 1 904 kb/s Width : 1 920 pixels Height : 1 080 pixels Display aspect ratio : 16:9 Frame rate mode : Constant Frame rate : 23.976 (24000/1001) FPS Color space : YUV Chroma subsampling : 4:2:0 Bit depth : 10 bits Bits/(Pixel*Frame) : 0.038 Stream size : 328 MiB (93%) Writing library : x265 2.9:[Windows][GCC 7.1.0][64 bit] 10bit Default : Yes Forced : No Color range : Limited Color primaries : BT.709 Transfer characteristics : BT.709 Matrix coefficients : BT.709 Audio ID : 2 Format : AAC LC Format/Info : Advanced Audio Codec Low Complexity Codec ID : A_AAC-2 Duration : 24 min 5 s Bit rate : 128 kb/s Channel(s) : 2 channels Channel layout : L R Sampling rate : 44.1 kHz Frame rate : 43.066 FPS (1024 SPF) Compression mode : Lossy Stream size : 22.0 MiB (6%) Language : Japanese Default : Yes Forced : No Text #1 ID : 3 Format : ASS Codec ID : S_TEXT/ASS Codec ID/Info : Advanced Sub Station Alpha Duration : 23 min 57 s Bit rate : 163 b/s Count of elements : 484 Compression mode : Lossless Stream size : 28.7 KiB (0%) Language : English Default : Yes Forced : Yes Text #2 ID : 4 Format : ASS Codec ID : S_TEXT/ASS Codec ID/Info : Advanced Sub Station Alpha Duration : 23 min 58 s Bit rate : 160 b/s Count of elements : 419 Compression mode : Lossless Stream size : 28.3 KiB (0%) Language : German Default : No Forced : No Text #3 ID : 5 Format : ASS Codec ID : S_TEXT/ASS Codec ID/Info : Advanced Sub Station Alpha Duration : 23 min 59 s Bit rate : 135 b/s Count of elements : 428 Compression mode : Lossless Stream size : 23.8 KiB (0%) Language : Spanish Default : No Forced : No Text #4 ID : 6 Format : ASS Codec ID : S_TEXT/ASS Codec ID/Info : Advanced Sub Station Alpha Duration : 23 min 59 s Bit rate : 135 b/s Count of elements : 428 Compression mode : Lossless Stream size : 23.8 KiB (0%) Title : Mexico Language : Spanish Default : No Forced : No Text #5 ID : 7 Format : ASS Codec ID : S_TEXT/ASS Codec ID/Info : Advanced Sub Station Alpha Duration : 23 min 57 s Bit rate : 151 b/s Count of elements : 413 Compression mode : Lossless Stream size : 26.6 KiB (0%) Language : French Default : No Forced : No Text #6 ID : 8 Format : ASS Codec ID : S_TEXT/ASS Codec ID/Info : Advanced Sub Station Alpha Duration : 23 min 57 s Bit rate : 171 b/s Count of elements : 491 Compression mode : Lossless Stream size : 30.1 KiB (0%) Language : Italian Default : No Forced : No Text #7 ID : 9 Format : ASS Codec ID : S_TEXT/ASS Codec ID/Info : Advanced Sub Station Alpha Duration : 23 min 58 s Bit rate : 151 b/s Count of elements : 481 Compression mode : Lossless Stream size : 26.7 KiB (0%) Language : Portuguese Default : No Forced : No Text #8 ID : 10 Format : ASS Codec ID : S_TEXT/ASS Codec ID/Info : Advanced Sub Station Alpha Duration : 23 min 58 s Bit rate : 177 b/s Count of elements : 463 Compression mode : Lossless Stream size : 31.1 KiB (0%) Language : Russian Default : No Forced : No Source: Crunchyroll WEB-DL

File list

  • [Arukoru] Go-Toubun no Hanayome (The Quintessential Quintuplets)- Episode 01 - The Quintessential Quintuplets [1080p x265 10bit WEB Multi-Sub AAC].mkv (350.7 MiB)