[Arukoru] Boogiepop wa Warawanai (Boogiepop and Others) Episode 03 [1080p x265 10bit WEB Multi-Sub AAC]

Category:
Date:
2019-01-12 01:13 UTC
Submitter:
Seeders:
5
Information:
No information.
Leechers:
0
File size:
215.9 MiB
Completed:
42
Info hash:
fd2b09d803bcab5d50de9712073b433c872915eb
[![Arukoru-Boogiepop-wa-Warawanai-Boogiepop-and-Others-Episode.png](https://i.postimg.cc/8CQz8qxy/Arukoru-Boogiepop-wa-Warawanai-Boogiepop-and-Others-Episode.png)](https://postimg.cc/v4hsfSY9) [![Arukoru-Boogiepop-wa-Warawanai-Boogiepop-and-Others-Episode.png](https://i.postimg.cc/MTzZH16V/Arukoru-Boogiepop-wa-Warawanai-Boogiepop-and-Others-Episode.png)](https://postimg.cc/HJP1Pc7k) [![Arukoru-Boogiepop-wa-Warawanai-Boogiepop-and-Others-Episode.png](https://i.postimg.cc/pTkWFyr7/Arukoru-Boogiepop-wa-Warawanai-Boogiepop-and-Others-Episode.png)](https://postimg.cc/bDDfXyQH) Format : Matroska Format version : Version 4 File size : 216 MiB Duration : 23 min 40 s Overall bit rate : 1 275 kb/s Encoded date : UTC 2019-01-12 01:07:00 Writing application : mkvmerge v29.0.0 ('Like It Or Not') 64-bit Writing library : libebml v1.3.6 + libmatroska v1.4.9 / Lavf58.20.100 Video ID : 1 Format : HEVC Format/Info : High Efficiency Video Coding Format profile : Main 10@L4@Main Codec ID : V_MPEGH/ISO/HEVC Duration : 23 min 40 s Bit rate : 1 144 kb/s Width : 1 920 pixels Height : 1 080 pixels Display aspect ratio : 16:9 Frame rate mode : Constant Frame rate : 23.976 (24000/1001) FPS Color space : YUV Chroma subsampling : 4:2:0 Bit depth : 10 bits Bits/(Pixel*Frame) : 0.023 Stream size : 194 MiB (90%) Writing library : x265 2.9:[Windows][GCC 7.1.0][64 bit] 10bit Encoding settings : cpuid=1111039 / frame-threads=2 / numa-pools=4 / wpp / no-pmode / no-pme / no-psnr / no-ssim / log-level=2 / input-csp=1 / input-res=1920x1080 / interlace=0 / total-frames=0 / level-idc=0 / high-tier=1 / uhd-bd=0 / ref=3 / no-allow-non-conformance / no-repeat-headers / annexb / no-aud / no-hrd / info / hash=0 / no-temporal-layers / open-gop / min-keyint=24 / keyint=240 / gop-lookahead=0 / bframes=4 / b-adapt=0 / b-pyramid / bframe-bias=0 / rc-lookahead=15 / lookahead-slices=6 / scenecut=40 / radl=0 / no-intra-refresh / ctu=64 / min-cu-size=8 / no-rect / no-amp / max-tu-size=32 / tu-inter-depth=1 / tu-intra-depth=1 / limit-tu=0 / rdoq-level=0 / dynamic-rd=0.00 / no-ssim-rd / signhide / no-tskip / nr-intra=0 / nr-inter=0 / no-constrained-intra / strong-intra-smoothing / max-merge=2 / limit-refs=3 / no-limit-modes / me=1 / subme=2 / merange=57 / temporal-mvp / weightp / no-weightb / no-analyze-src-pics / deblock=0:0 / sao / no-sao-non-deblock / rd=2 / no-early-skip / rskip / fast-intra / no-tskip-fast / no-cu-lossless / no-b-intra / no-splitrd-skip / rdpenalty=0 / psy-rd=2.00 / psy-rdoq=0.00 / no-rd-refine / no-lossless / cbqpoffs=0 / crqpoffs=0 / rc=crf / crf=20.0 / qcomp=0.60 / qpstep=4 / stats-write=0 / stats-read=0 / ipratio=1.40 / pbratio=1.30 / aq-mode=1 / aq-strength=1.00 / cutree / zone-count=0 / no-strict-cbr / qg-size=32 / no-rc-grain / qpmax=69 / qpmin=0 / no-const-vbv / sar=1 / overscan=0 / videoformat=5 / range=0 / colorprim=1 / transfer=1 / colormatrix=1 / chromaloc=0 / display-window=0 / max-cll=0,0 / min-luma=0 / max-luma=1023 / log2-max-poc-lsb=8 / vui-timing-info / vui-hrd-info / slices=1 / no-opt-qp-pps / no-opt-ref-list-length-pps / no-multi-pass-opt-rps / scenecut-bias=0.05 / no-opt-cu-delta-qp / no-aq-motion / no-hdr / no-hdr-opt / no-dhdr10-opt / no-idr-recovery-sei / analysis-reuse-level=5 / scale-factor=0 / refine-intra=0 / refine-inter=0 / refine-mv=0 / no-limit-sao / ctu-info=0 / no-lowpass-dct / refine-mv-type=0 / copy-pic=1 / max-ausize-factor=1.0 / no-dynamic-refine / no-single-sei Default : Yes Forced : No Color range : Limited Color primaries : BT.709 Transfer characteristics : BT.709 Matrix coefficients : BT.709 Audio ID : 2 Format : AAC LC Format/Info : Advanced Audio Codec Low Complexity Codec ID : A_AAC-2 Duration : 23 min 40 s Bit rate : 128 kb/s Channel(s) : 2 channels Channel layout : L R Sampling rate : 44.1 kHz Frame rate : 43.066 FPS (1024 SPF) Compression mode : Lossy Stream size : 21.7 MiB (10%) Language : Japanese Default : Yes Forced : No Text #1 ID : 3 Format : ASS Codec ID : S_TEXT/ASS Codec ID/Info : Advanced Sub Station Alpha Duration : 21 min 50 s Bit rate : 114 b/s Count of elements : 274 Compression mode : Lossless Stream size : 18.2 KiB (0%) Language : English Default : Yes Forced : Yes Text #2 ID : 4 Format : ASS Codec ID : S_TEXT/ASS Codec ID/Info : Advanced Sub Station Alpha Duration : 21 min 50 s Bit rate : 137 b/s Count of elements : 274 Compression mode : Lossless Stream size : 22.0 KiB (0%) Language : Arabic Default : No Forced : No Text #3 ID : 5 Format : ASS Codec ID : S_TEXT/ASS Codec ID/Info : Advanced Sub Station Alpha Duration : 20 min 30 s Bit rate : 112 b/s Count of elements : 268 Compression mode : Lossless Stream size : 16.8 KiB (0%) Language : Spanish Default : No Forced : No Text #4 ID : 6 Format : ASS Codec ID : S_TEXT/ASS Codec ID/Info : Advanced Sub Station Alpha Duration : 20 min 32 s Bit rate : 119 b/s Count of elements : 262 Compression mode : Lossless Stream size : 18.0 KiB (0%) Title : Mexico Language : Spanish Default : No Forced : No Text #5 ID : 7 Format : ASS Codec ID : S_TEXT/ASS Codec ID/Info : Advanced Sub Station Alpha Duration : 21 min 50 s Bit rate : 116 b/s Count of elements : 270 Compression mode : Lossless Stream size : 18.6 KiB (0%) Language : Italian Default : No Forced : No Text #6 ID : 8 Format : ASS Codec ID : S_TEXT/ASS Codec ID/Info : Advanced Sub Station Alpha Duration : 21 min 50 s Bit rate : 114 b/s Count of elements : 272 Compression mode : Lossless Stream size : 18.2 KiB (0%) Language : Portuguese Default : No Forced : No Source: Crunchyroll WEB-DL

File list

  • [Arukoru] Boogiepop wa Warawanai (Boogiepop and Others) Episode 03 [1080p x265 10bit WEB Multi-Sub AAC].mkv (215.9 MiB)

Comments - 0