Dragon.Ball.The.Path.to.Power.1996.1080p.TOEI.HD.10-Bit.Dual-Audio.AC3.x265-iAHD.mkv

Category:
Date:
2019-01-11 18:57 UTC
Submitter:
Seeders:
2
Information:
No information.
Leechers:
0
File size:
4.2 GiB
Completed:
283
Info hash:
7f10442171a5a6455e97db28e25ed6c0892a4ae1
Video ID : 1 Format : HEVC Format/Info : High Efficiency Video Coding Format profile : Main 10@L5@Main Codec ID : V_MPEGH/ISO/HEVC Duration : 1 h 19 min Bit rate : 6 656 kb/s Width : 1 920 pixels Height : 1 080 pixels Display aspect ratio : 16:9 Frame rate mode : Constant Frame rate : 23.976 (24000/1001) FPS Color space : YUV Chroma subsampling : 4:2:0 Bit depth : 10 bits Bits/(Pixel*Frame) : 0.134 Stream size : 3.70 GiB (89%) Writing library : x265 2.9:[Windows][GCC 7.1.0][64 bit] 10bit Encoding settings : cpuid=1111039 / frame-threads=4 / numa-pools=16 / wpp / no-pmode / no-pme / no-psnr / no-ssim / log-level=2 / input-csp=1 / input-res=1920x1080 / interlace=0 / total-frames=0 / level-idc=0 / high-tier=1 / uhd-bd=0 / ref=6 / no-allow-non-conformance / no-repeat-headers / annexb / no-aud / no-hrd / info / hash=0 / no-temporal-layers / open-gop / min-keyint=24 / keyint=240 / gop-lookahead=0 / bframes=16 / b-adapt=2 / b-pyramid / bframe-bias=0 / rc-lookahead=50 / lookahead-slices=4 / scenecut=40 / radl=0 / no-intra-refresh / ctu=32 / min-cu-size=8 / rect / no-amp / max-tu-size=32 / tu-inter-depth=1 / tu-intra-depth=3 / limit-tu=0 / rdoq-level=2 / dynamic-rd=0.00 / no-ssim-rd / signhide / tskip / nr-intra=0 / nr-inter=0 / no-constrained-intra / strong-intra-smoothing / max-merge=3 / limit-refs=3 / limit-modes / me=3 / subme=3 / merange=57 / temporal-mvp / weightp / no-weightb / no-analyze-src-pics / deblock=0:0 / sao / no-sao-non-deblock / rd=4 / no-early-skip / rskip / no-fast-intra / tskip-fast / no-cu-lossless / no-b-intra / no-splitrd-skip / rdpenalty=0 / psy-rd=2.00 / psy-rdoq=1.00 / no-rd-refine / no-lossless / cbqpoffs=0 / crqpoffs=0 / rc=crf / crf=16.0 / qcomp=0.60 / qpstep=4 / stats-write=0 / stats-read=0 / ipratio=1.40 / pbratio=1.30 / aq-mode=3 / aq-strength=0.80 / cutree / zone-count=0 / no-strict-cbr / qg-size=32 / no-rc-grain / qpmax=69 / qpmin=0 / no-const-vbv / sar=1 / overscan=0 / videoformat=5 / range=0 / colorprim=1 / transfer=1 / colormatrix=1 / chromaloc=0 / display-window=0 / max-cll=0,0 / min-luma=0 / max-luma=1023 / log2-max-poc-lsb=8 / vui-timing-info / vui-hrd-info / slices=1 / no-opt-qp-pps / no-opt-ref-list-length-pps / no-multi-pass-opt-rps / scenecut-bias=0.05 / no-opt-cu-delta-qp / no-aq-motion / no-hdr / no-hdr-opt / no-dhdr10-opt / no-idr-recovery-sei / analysis-reuse-level=5 / scale-factor=0 / refine-intra=0 / refine-inter=0 / refine-mv=0 / no-limit-sao / ctu-info=0 / no-lowpass-dct / refine-mv-type=0 / copy-pic=1 / max-ausize-factor=1.0 / no-dynamic-refine / no-single-sei Language : Japanese Default : Yes Forced : No Color range : Limited Color primaries : BT.709 Transfer characteristics : BT.709 Matrix coefficients : BT.709 Audio #1 ID : 2 Format : AC-3 Format/Info : Audio Coding 3 Commercial name : Dolby Digital Codec ID : A_AC3 Duration : 1 h 19 min Bit rate mode : Constant Bit rate : 448 kb/s Channel(s) : 6 channels Channel layout : L R C LFE Ls Rs Sampling rate : 48.0 kHz Frame rate : 31.250 FPS (1536 SPF) Bit depth : 16 bits Compression mode : Lossy Stream size : 255 MiB (6%) Language : English Service kind : Complete Main Default : Yes Forced : No Audio #2 ID : 3 Format : AC-3 Format/Info : Audio Coding 3 Commercial name : Dolby Digital Codec ID : A_AC3 Duration : 1 h 19 min Bit rate mode : Constant Bit rate : 384 kb/s Channel(s) : 2 channels Channel layout : L R Sampling rate : 48.0 kHz Frame rate : 31.250 FPS (1536 SPF) Bit depth : 16 bits Compression mode : Lossy Stream size : 219 MiB (5%) Language : Japanese Service kind : Complete Main Default : No Forced : No Text #1 ID : 4 Format : PGS Muxing mode : zlib Codec ID : S_HDMV/PGS Codec ID/Info : Picture based subtitle format used on BDs/HD-DVDs Duration : 1 h 14 min Bit rate : 660 b/s Count of elements : 32 Stream size : 361 KiB (0%) Title : Signs / Songs Language : English Default : Yes Forced : No Text #2 ID : 5 Format : PGS Muxing mode : zlib Codec ID : S_HDMV/PGS Codec ID/Info : Picture based subtitle format used on BDs/HD-DVDs Duration : 1 h 19 min Bit rate : 15.9 kb/s Count of elements : 1466 Stream size : 9.01 MiB (0%) Title : Dialogue Language : English Default : No Forced : No Menu 00:00:00.000 : en:Chapter 01 00:05:08.975 : en:Chapter 02 00:11:32.692 : en:Chapter 03 00:14:57.563 : en:Chapter 04 00:20:18.551 : en:Chapter 05 00:25:02.167 : en:Chapter 06 00:27:42.995 : en:Chapter 07 00:30:18.483 : en:Chapter 08 00:33:09.988 : en:Chapter 09 00:36:34.859 : en:Chapter 10 00:40:07.071 : en:Chapter 11 00:45:18.049 : en:Chapter 12 00:48:41.585 : en:Chapter 13 00:52:00.451 : en:Chapter 14 00:55:23.320 : en:Chapter 15 00:58:48.859 : en:Chapter 16 01:02:44.427 : en:Chapter 17 01:06:54.677 : en:Chapter 18 01:10:30.226 : en:Chapter 19 01:13:21.063 : en:Chapter 20 01:16:37.259 : en:Chapter 21

File list

  • Dragon.Ball.The.Path.to.Power.1996.1080p.TOEI.HD.10-Bit.Dual-Audio.AC3.x265-iAHD.mkv (4.2 GiB)
it's done! Thanks for all the work man
Thanks for this release. There just one thing I want to ask you, which is, why is there yellowish kinda filter in these movies and that goes for Dragon Ball Z movies too? Is there any specific reason for that? I'm asking because I have 6 DBZ Blu-ray movies and their temperature is cooler while of these movies are much warmer.
thank you for all the hard work! I really wish you'd continure with Battle of gods, resurrection F and other DBZ specials like "plan to eradicate the sayian", bardock episode, bardock father of goku and trunks special but that's up to you

iAHQ (uploader)

User
@ab8895 yeah the temperature color on the DBZ Blu-Ray is cooler, but I used the video from the new 2018 TOEI remaster's from Amazon Web-DL and the color is warmer @chinpokomon I already have done Battle of Gods and Resurrection F they are up on the site, I also have the DBZ special on Blu-Rays maybe I will do it when I have time
Well, the Bardock Special has received the TOEI HD treatment but there's no "proper" HD version yet.
If you want, you can download it right here : https://nyaa.si/view/1104861
Well, there's that. FUNi's dub of the Bardock Special is meh but nostalgia.
iAHQ, thanks a ton for these movies. was this a rip from your own collection?
thanks iAHQ for all the uploads, do u also have ova in in toei hd remaster?just curious