Grave Of The Fireflies [1988] 1080p BDRip x265 DTS-HD_MA 2.0 Kira [SEV]

Category:
Date:
2019-01-11 07:06 UTC
Submitter:
Seeders:
6
Information:
No information.
Leechers:
0
File size:
18.6 GiB
Completed:
103
Info hash:
eed5ba6813073503994daec4845dd5ac212f2193
https://i.postimg.cc/tRvJthmq/SEV-logo.png Screenshot's Source : https://extraimage.net/image/cUFB https://extraimage.net/image/cUFU https://extraimage.net/image/cUFG https://extraimage.net/image/cUFr Encode : https://extraimage.net/image/cUF5 https://extraimage.net/image/cUFX https://extraimage.net/image/cUFf https://extraimage.net/image/cUFW Media Information General Complete name : Grave Of The Fireflies [1988] 1080p BDRip x265 DTS-HD_MA 2.0 Kira [SEV].mkv Format : Matroska Format version : Version 4 File size : 18.6 GiB Duration : 1 h 28 min Overall bit rate mode : Variable Overall bit rate : 30.1 Mb/s Movie name : | 火垂るの墓 [1988] | Grave Of The Fireflies [1988] | 1080p | BDRip | x265 | DTS:HD_MA 2.0 | Kira [SEV] | Encoded date : UTC 2018-12-29 15:11:36 Writing application : mkvmerge v29.0.0 ('Like It Or Not') 64-bit Writing library : libebml v1.3.6 + libmatroska v1.4.9 Attachments : AdobeGothicStd-Bold.otf / BorisBlackBloxx.ttf / fontastique.ttf / nyala.ttf Video ID : 1 Format : HEVC Format/Info : High Efficiency Video Coding Format profile : Main 10@L4@Main Codec ID : V_MPEGH/ISO/HEVC Duration : 1 h 28 min Bit rate : 23.9 Mb/s Width : 1 920 pixels Height : 1 080 pixels Display aspect ratio : 16:9 Frame rate mode : Constant Frame rate : 23.976 (24000/1001) FPS Color space : YUV Chroma subsampling : 4:2:0 Bit depth : 10 bits Bits/(Pixel*Frame) : 0.480 Stream size : 14.8 GiB (79%) Title : | 火垂るの墓 [1988] | Grave Of The Fireflies [1988] | 1080p | BDRip | x265 | DTS:HD_MA 2.0 | Kira [SEV] | Writing library : x265 2.9+9-f74003e88622:[Windows][MSVC 1916][64 bit] 10bit Encoding settings : cpuid=1111039 / frame-threads=2 / numa-pools=4 / wpp / no-pmode / no-pme / no-psnr / no-ssim / log-level=2 / input-csp=1 / input-res=1920x1080 / interlace=0 / total-frames=127350 / level-idc=0 / high-tier=1 / uhd-bd=0 / ref=4 / no-allow-non-conformance / no-repeat-headers / annexb / no-aud / no-hrd / info / hash=0 / no-temporal-layers / open-gop / min-keyint=23 / keyint=250 / gop-lookahead=0/ bframes=8 / b-adapt=2 / b-pyramid / bframe-bias=0 / rc-lookahead=100 / lookahead-slices=4 / scenecut=40 / radl=0 / no-intra-refresh / ctu=64 / min-cu-size=8 / no-rect / no-amp / max-tu-size=32 / tu-inter-depth=2 /tu-intra-depth=2 / limit-tu=4 / rdoq-level=2 / dynamic-rd=0.00 / no-ssim-rd / signhide / no-tskip / nr-intra=0 / nr-inter=0 / no-constrained-intra / no-strong-intra-smoothing / max-merge=3 / limit-refs=2 / limit-modes /me=3 / subme=5 / merange=57 / temporal-mvp / weightp / weightb / no-analyze-src-pics / deblock=0:0 / sao / no-sao-non-deblock / rd=6 / no-early-skip / rskip / no-fast-intra / no-tskip-fast / no-cu-lossless / b-intra /no-splitrd-skip / rdpenalty=0 / psy-rd=1.80 / psy-rdoq=1.00 / no-rd-refine / no-lossless / cbqpoffs=0 / crqpoffs=0 / rc=crf / crf=17.5 / qcomp=0.60 / qpstep=4 / stats-write=0 / stats-read=0 / ipratio=1.40 / pbratio=1.30 /aq-mode=3 / aq-strength=1.60 / cutree / zone-count=0 / no-strict-cbr / qg-size=32 / no-rc-grain / qpmax=69 / qpmin=0 / no-const-vbv / sar=0 / overscan=0 / videoformat=5 / range=0 / colorprim=2 / transfer=2 /colormatrix=2 / chromaloc=0 / display-window=0 / max-cll=0,0 / min-luma=0 / max-luma=1023 / log2-max-poc-lsb=8 / vui-timing-info / vui-hrd-info / slices=1 / no-opt-qp-pps / no-opt-ref-list-length-pps / no-multi-passopt-rps / scenecut-bias=0.05 / no-opt-cu-delta-qp / no-aq-motion / no-hdr / no-hdr-opt / no-dhdr10-opt / no-idr-recovery-sei / analysis-reuse-level=5 / scale-factor=0 / refine-intra=0 / refine-inter=0 / refine-mv=0 / nolimit-sao / ctu-info=0 / no-lowpass-dct / refine-mv-type=0 / copy-pic=1 / max-ausize-factor=1.0 / no-dynamic-refine / no-single-sei Language : Japanese Default : Yes Forced : No Audio #1 ID : 2 Format : DTS XLL Format/Info : Digital Theater Systems Commercial name : DTS-HD Master Audio Codec ID : A_DTS Duration : 1 h 28 min Bit rate mode : Variable Bit rate : 2 120 kb/s Channel(s) : 2 channels Sampling rate : 48.0 kHz Frame rate : 93.750 FPS (512 SPF) Bit depth : 24 bits Compression mode : Lossless Stream size : 1.31 GiB (7%) Title : Japanese Org BD DTS:HD_MA DD_2.0 @ 2120 Kbps Language : Japanese Default : Yes Forced : No Audio #2 ID : 3 Format : DTS XLL Format/Info : Digital Theater Systems Commercial name : DTS-HD Master Audio Codec ID : A_DTS Duration : 1 h 28 min Bit rate mode : Variable Bit rate : 2 023 kb/s Channel(s) : 2 channels Channel layout : L R Sampling rate : 48.0 kHz Frame rate : 93.750 FPS (512 SPF) Bit depth : 24 bits Compression mode : Lossless Stream size : 1.25 GiB (7%) Title : English [Original Dub] Org BD DTS:HD_MA DD_2.0 @ 2023 Kbps Language : English Default : No Forced : No Audio #3 ID : 4 Format : DTS XLL Format/Info : Digital Theater Systems Commercial name : DTS-HD Master Audio Codec ID : A_DTS Duration : 1 h 28 min Bit rate mode : Variable Bit rate : 2 092 kb/s Channel(s) : 2 channels Channel layout : L R Sampling rate : 48.0 kHz Frame rate : 93.750 FPS (512 SPF) Bit depth : 24 bits Compression mode : Lossless Stream size : 1.29 GiB (7%) Title : English [Sentai Dub] Org BD DTS:HD_MA DD_2.0 @ 2092 Kbps Language : English Default : No Forced : No Text #1 ID : 5 Format : PGS Muxing mode : zlib Codec ID : S_HDMV/PGS Codec ID/Info : Picture based subtitle format used on BDs/HD-DVDs Duration : 1 h 25 min Bit rate : 20.5 kb/s Count of elements : 1699 Stream size : 12.5 MiB (0%) Title : Japanese Org BD PGS Sub Language : Japanese Default : Yes Forced : No Text #2 ID : 6 Format : PGS Muxing mode : zlib Codec ID : S_HDMV/PGS Codec ID/Info : Picture based subtitle format used on BDs/HD-DVDs Duration : 1 h 28 min Bit rate : 19.8 kb/s Count of elements : 1182 Stream size : 12.5 MiB (0%) Title : English (Dialogue) Org BD PGS Sub Language : English Default : No Forced : No Text #3 ID : 7 Format : PGS Muxing mode : zlib Codec ID : S_HDMV/PGS Codec ID/Info : Picture based subtitle format used on BDs/HD-DVDs Duration : 21 s 980 ms Bit rate : 66.9 kb/s Count of elements : 8 Stream size : 179 KiB (0%) Title : English (Signs and Songs) Org BD PGS Sub Language : English Default : No Forced : No Text #4 ID : 8 Format : ASS Title : English [Japanese Org BD PGS Sub Translation] ASS Text #5 ID : 9 Format : ASS Title : English [Translated Signs] ASS Text #6 ID : 10 Format : ASS Title : English [Edited Dialogue Translation] ASS Text #7 ID : 11 Format : ASS Title : English [Sentai Dialogue Translation] ASS

File list

  • Grave Of The Fireflies [1988] 1080p BDRip x265 DTS-HD_MA 2.0 Kira [SEV].mkv (18.6 GiB)