[Arukoru] SSSS.Gridman - Episode 11 - Decisive Battle [1080p x265 10bit WEB English Dub AAC]

Category:
Date:
2018-12-22 19:53 UTC
Submitter:
Seeders:
0
Information:
No information.
Leechers:
0
File size:
324.6 MiB
Completed:
80
Info hash:
0a4b15be1ef4263dfe67234b494e89206ee29b1e
[![Watch-SSSS-GRIDMAN-Season-1-Episode-11-Anime-on-Funimation-1-1.png](https://i.postimg.cc/W4r5Jzzm/Watch-SSSS-GRIDMAN-Season-1-Episode-11-Anime-on-Funimation-1-1.png)](https://postimg.cc/xkfvw0Kq) [![Watch-SSSS-GRIDMAN-Season-1-Episode-11-Anime-on-Funimation-1-1.png](https://i.postimg.cc/W1qnQzGR/Watch-SSSS-GRIDMAN-Season-1-Episode-11-Anime-on-Funimation-1-1.png)](https://postimg.cc/G4rGDcgz) [![Watch-SSSS-GRIDMAN-Season-1-Episode-11-Anime-on-Funimation-1-1.png](https://i.postimg.cc/XY5fshW4/Watch-SSSS-GRIDMAN-Season-1-Episode-11-Anime-on-Funimation-1-1.png)](https://postimg.cc/xX0NC6q4) Format : Matroska Format version : Version 4 File size : 325 MiB Duration : 23 min 47 s Overall bit rate : 1 908 kb/s Encoded date : UTC 2018-12-22 19:32:41 Writing application : mkvmerge v11.0.0 ('Alive') 64bit Writing library : libebml v1.3.4 + libmatroska v1.4.5 Video ID : 1 Format : HEVC Format/Info : High Efficiency Video Coding Codec ID : V_MPEGH/ISO/HEVC Duration : 23 min 47 s Bit rate : 1 652 kb/s Width : 1 920 pixels Height : 1 080 pixels Display aspect ratio : 16:9 Frame rate mode : Constant Frame rate : 23.976 (24000/1001) FPS Bits/(Pixel*Frame) : 0.033 Stream size : 281 MiB (87%) Default : Yes Forced : No Audio ID : 2 Format : AAC LC Format/Info : Advanced Audio Codec Low Complexity Codec ID : A_AAC-2 Duration : 23 min 47 s Bit rate : 253 kb/s Channel(s) : 2 channels Channel layout : L R Sampling rate : 48.0 kHz Frame rate : 46.875 FPS (1024 SPF) Compression mode : Lossy Stream size : 43.1 MiB (13%) Language : English Default : Yes Forced : No Source: Funimation WEB-DL

File list

  • [Arukoru] SSSS.Gridman - Episode 11 - Decisive Battle [1080p x265 10bit WEB English Dub AAC].mkv (324.6 MiB)