[Neutrinome] Darling in the FranXX - VOSTFR [1080p BDRemux] + DDL

Category:
Date:
2018-12-20 22:02 UTC
Submitter:
Seeders:
2
Information:
Leechers:
1
File size:
182.8 GiB
Completed:
31
Info hash:
71f6e71e08ec381781d44ba10c13760f1e8427e0
Darling in the FranXX ====== *** ![alt text](https://www.nautiljon.com/images/galerie/11/29/darling_in_the_frankxx_944492.jpg) *** * **Date de sortie** : 2018 * **Durée** : 24\*24min + 2\*24min * **Licencié** : Crunchyroll * **Vidéo BDMV** : Aparviel & XX-Project * **Sous-titre** : Crunchyroll * **Lien DDL** : [Uptobox](https://uptobox.com/3udhh62kgp6l) *** **NFO** General Unique ID : 194131619524656285946832690434760830230 (0x920C63D1C38C7E6DDD26EBF17B70ED16) Format : Matroska Format version : Version 4 / Version 2 File size : 6.72 GiB Duration : 24 min 2 s Overall bit rate mode : Variable Overall bit rate : 40.0 Mb/s Encoded date : UTC 2018-05-13 12:50:50 Writing application : mkvmerge v22.0.0 ('At The End Of The World') 64-bit Writing library : libebml v1.3.5 + libmatroska v1.4.8 Video ID : 1 Format : AVC Format/Info : Advanced Video Codec Format profile : High@L4.1 Format settings, CABAC : Yes Format settings, RefFrames : 4 frames Codec ID : V_MPEG4/ISO/AVC Duration : 24 min 2 s Bit rate mode : Variable Bit rate : 37.7 Mb/s Maximum bit rate : 40.0 Mb/s Width : 1 920 pixels Height : 1 080 pixels Display aspect ratio : 16:9 Frame rate mode : Constant Frame rate : 23.976 (24000/1001) FPS Color space : YUV Chroma subsampling : 4:2:0 Bit depth : 8 bits Scan type : Progressive Bits/(Pixel*Frame) : 0.759 Stream size : 6.33 GiB (94%) Default : Yes Forced : No Audio ID : 2 Format : PCM Codec ID : A_PCM/INT/LIT Duration : 24 min 2 s Bit rate mode : Constant Bit rate : 2 304 kb/s Channel(s) : 2 channels Sampling rate : 48.0 kHz Frame rate : 32.000 FPS (1500 SPF) Bit depth : 24 bits Stream size : 396 MiB (6%) Language : Japanese Default : Yes Forced : No Text ID : 3 Format : ASS Codec ID : S_TEXT/ASS Codec ID/Info : Advanced Sub Station Alpha Duration : 23 min 51 s Bit rate : 131 b/s Count of elements : 332 Compression mode : Lossless Stream size : 23.1 KiB (0%) Title : Français Language : French Default : Yes Forced : No

File list

  • [Neutrinome] Darling in the FranXX [VOSTFR 1080p BDRemux]
    • EXTRA
      • Menu
        • Menu 01.mkv (197.9 MiB)
        • Menu 02.mkv (208.8 MiB)
        • Menu 03.mkv (207.5 MiB)
        • Menu 04.mkv (209.0 MiB)
        • Menu 05.mkv (209.1 MiB)
        • Menu 06.mkv (208.5 MiB)
        • Menu 07.mkv (219.1 MiB)
        • Menu 08.mkv (218.3 MiB)
      • NC
        • Darling in the FranXX - NCOP1 [1080p BDRemux].mkv (390.9 MiB)
        • Darling in the FranXX - NCOP2 [1080p BDRemux].mkv (394.2 MiB)
      • SP
        • [Neutrinome] Darling in the FranXX - SP0 - VO [1080p BDRemux].mkv (6.7 GiB)
        • [Neutrinome] Darling in the FranXX - SP1 - VOSTFR [1080p BDRemux].mkv (6.7 GiB)
        • [Neutrinome] Darling in the FranXX - SP2 - VOSTFR [1080p BDRemux].mkv (6.7 GiB)
    • [Neutrinome] Darling in the FranXX - 01 - VOSTFR [1080p BDRemux].mkv (6.7 GiB)
    • [Neutrinome] Darling in the FranXX - 02 - VOSTFR [1080p BDRemux].mkv (6.7 GiB)
    • [Neutrinome] Darling in the FranXX - 03 - VOSTFR [1080p BDRemux].mkv (6.7 GiB)
    • [Neutrinome] Darling in the FranXX - 04 - VOSTFR [1080p BDRemux].mkv (6.4 GiB)
    • [Neutrinome] Darling in the FranXX - 05 - VOSTFR [1080p BDRemux].mkv (6.4 GiB)
    • [Neutrinome] Darling in the FranXX - 06 - VOSTFR [1080p BDRemux].mkv (6.4 GiB)
    • [Neutrinome] Darling in the FranXX - 07 - VOSTFR [1080p BDRemux].mkv (6.7 GiB)
    • [Neutrinome] Darling in the FranXX - 08 - VOSTFR [1080p BDRemux].mkv (6.7 GiB)
    • [Neutrinome] Darling in the FranXX - 09 - VOSTFR [1080p BDRemux].mkv (6.7 GiB)
    • [Neutrinome] Darling in the FranXX - 10 - VOSTFR [1080p BDRemux].mkv (6.7 GiB)
    • [Neutrinome] Darling in the FranXX - 11 - VOSTFR [1080p BDRemux].mkv (6.7 GiB)
    • [Neutrinome] Darling in the FranXX - 12 - VOSTFR [1080p BDRemux].mkv (6.7 GiB)
    • [Neutrinome] Darling in the FranXX - 13 - VOSTFR [1080p BDRemux].mkv (6.6 GiB)
    • [Neutrinome] Darling in the FranXX - 14 - VOSTFR [1080p BDRemux].mkv (6.7 GiB)
    • [Neutrinome] Darling in the FranXX - 15 - VOSTFR [1080p BDRemux].mkv (6.7 GiB)
    • [Neutrinome] Darling in the FranXX - 16 - VOSTFR [1080p BDRemux].mkv (6.7 GiB)
    • [Neutrinome] Darling in the FranXX - 17 - VOSTFR [1080p BDRemux].mkv (6.7 GiB)
    • [Neutrinome] Darling in the FranXX - 18 - VOSTFR [1080p BDRemux].mkv (6.7 GiB)
    • [Neutrinome] Darling in the FranXX - 19 - VOSTFR [1080p BDRemux].mkv (6.7 GiB)
    • [Neutrinome] Darling in the FranXX - 20 - VOSTFR [1080p BDRemux].mkv (6.7 GiB)
    • [Neutrinome] Darling in the FranXX - 21 - VOSTFR [1080p BDRemux].mkv (6.7 GiB)
    • [Neutrinome] Darling in the FranXX - 22 - VOSTFR [1080p BDRemux].mkv (6.7 GiB)
    • [Neutrinome] Darling in the FranXX - 23 - VOSTFR [1080p BDRemux].mkv (6.7 GiB)
    • [Neutrinome] Darling in the FranXX - 24 - VOSTFR [1080p BDRemux].mkv (6.7 GiB)
183 Go, belle bête !
183Go (⊙_⊙)
182Go popopo ! ceux qui veulent de la qualité seront servi et aussi ceux qui il veulent jeter des go dans l'air.
> 182Go popopo ! ceux qui veulent de la qualité seront servi et aussi ceux qui il veulent jeter des go dans l’air. Surtout pour ceux qui veulent jeter des Go dans l'air, pour la qualité, tu peux directement prendre [celui-ci](https://nyaa.si/view/1102304).
Sympa avec lien Uptobox thx :)