[Neutrinome] Darling in the FranXX Vol.8 - VOSTFR [1080p BDRemux] + DDL

Category:
Date:
2018-12-19 23:04 UTC
Submitter:
Seeders:
0
Information:
Leechers:
0
File size:
20.4 GiB
Completed:
18
Info hash:
93a65854ec875790193aa7cd63416613af7b63cb
Darling in the FranXX BD Volume 8 ====== *** ![alt text](https://darli-fra.jp/assets/img/common/bddvd/pkg_08.jpg) *** * **Date de sortie** : 2018 * **Durée** : 3*24min * **Licencié** : Crunchyroll * **Vidéo BDMV** : Aparviel * **Sous-titre** : Crunchyroll * **Lien DDL** : [Uptobox](https://uptobox.com/knohf9mgnd46) *** **NFO** General Unique ID : 312588463222437249879090587656780862881 (0xEB2A5920F2E1351E559374E67E7155A1) Format : Matroska Format version : Version 4 / Version 2 File size : 6.72 GiB Duration : 24 min 2 s Overall bit rate mode : Variable Overall bit rate : 40.0 Mb/s Encoded date : UTC 2018-12-19 19:51:54 Writing application : mkvmerge v29.0.0 ('Like It Or Not') 64-bit Writing library : libebml v1.3.6 + libmatroska v1.4.9 Video ID : 1 Format : AVC Format/Info : Advanced Video Codec Format profile : High@L4.1 Format settings, CABAC : Yes Format settings, RefFrames : 4 frames Codec ID : V_MPEG4/ISO/AVC Duration : 24 min 2 s Bit rate mode : Variable Bit rate : 37.7 Mb/s Maximum bit rate : 40.0 Mb/s Width : 1 920 pixels Height : 1 080 pixels Display aspect ratio : 16:9 Frame rate mode : Constant Frame rate : 23.976 (24000/1001) FPS Color space : YUV Chroma subsampling : 4:2:0 Bit depth : 8 bits Scan type : Progressive Bits/(Pixel*Frame) : 0.759 Stream size : 6.33 GiB (94%) Default : No Forced : No Audio ID : 2 Format : PCM Codec ID : A_PCM/INT/LIT Duration : 24 min 2 s Bit rate mode : Constant Bit rate : 2 304 kb/s Channel(s) : 2 channels Sampling rate : 48.0 kHz Frame rate : 30.000 FPS (1600 SPF) Bit depth : 24 bits Delay relative to video : 27 ms Stream size : 396 MiB (6%) Language : Japanese Default : Yes Forced : No Text ID : 3 Format : ASS Codec ID : S_TEXT/ASS Codec ID/Info : Advanced Sub Station Alpha Duration : 23 min 55 s Bit rate : 117 b/s Count of elements : 302 Compression mode : Lossless Stream size : 20.6 KiB (0%) Title : Français Language : French Default : Yes Forced : No

File list