[Aparviel] DARLING in the FRANXX Vol.8 [1080p BDRemux]

Category:
Date:
2018-12-16 08:57 UTC
Submitter:
Seeders:
1
Information:
Leechers:
0
File size:
23.2 GiB
Completed:
37
Info hash:
023989bbf9d54fcf91e47221592192d913406313
### 8th Blu-ray volume of DARLING in the FRANXX #### ANZX-14455 --- ##### All episodes have second and third audio track with exclusive commentary --- ![alt text](https://i.imgur.com/pgXJO7p.jpg "") --- ### Info ``` General Complete name : D:\DARLING in the FRANXX Vol.8 [1080p BDRemux]\DARLING in the FRANXX - 22 [1080p BDRemux].mkv Format : Matroska Format version : Version 4 / Version 2 File size : 7.49 GiB Duration : 24 min 1 s Overall bit rate mode : Variable Overall bit rate : 44.7 Mb/s Movie name : DARLING in the FRANXX Vol.8 Writing application : mkvmerge v25.0.0 ('Prog Noir') 64-bit Writing library : libebml v1.3.6 + libmatroska v1.4.9 Video ID : 1 Codec ID : V_MPEG4/ISO/AVC Duration : 24 min 1 s Bit rate mode : Variable Bit rate : 37.8 Mb/s Maximum bit rate : 40.0 Mb/s Width : 1 920 pixels Height : 1 080 pixels Display aspect ratio : 16:9 Frame rate mode : Constant Frame rate : 23.976 (24000/1001) FPS Color space : YUV Chroma subsampling : 4:2:0 Bit depth : 8 bits Scan type : Progressive Bits/(Pixel*Frame) : 0.759 Stream size : 6.33 GiB (85%) Audio #1 ID : 2 Format : PCM Codec ID : A_PCM/INT/LIT Bit rate mode : Constant Bit rate : 2 304 kb/s Channel(s) : 2 channels Sampling rate : 48.0 kHz Bit depth : 24 bits Stream size : 396 MiB (5%) Audio #2 ID : 3 Format : PCM Format settings : Little / Signed Codec ID : A_PCM/INT/LIT Duration : 24 min 1 s Bit rate mode : Constant Bit rate : 2 304 kb/s Channel(s) : 2 channels Sampling rate : 48.0 kHz Bit depth : 24 bits Stream size : 396 MiB (5%) Audio #3 ID : 4 Format : PCM Codec ID : A_PCM/INT/LIT Bit rate mode : Constant Bit rate : 2 304 kb/s Channel(s) : 2 channels Sampling rate : 48.0 kHz Bit depth : 24 bits Stream size : 396 MiB (5%) ```

File list

  • DARLING in the FRANXX Vol.8 [1080p BDRemux]
    • Bonus
      • DARLING in the FRANXX - Ep 22 Preview.mkv (132.8 MiB)
      • DARLING in the FRANXX - Ep 23 Preview.mkv (135.6 MiB)
      • DARLING in the FRANXX - Ep 24 Preview.mkv (130.6 MiB)
      • Darling in the FranXX Vol.8 Menu.mkv (218.3 MiB)
      • IMG_0001.png (65.9 MiB)
      • IMG_0002.png (65.4 MiB)
    • DARLING in the FRANXX - 22 [1080p BDRemux].mkv (7.5 GiB)
    • DARLING in the FRANXX - 23 [1080p BDRemux].mkv (7.5 GiB)
    • DARLING in the FRANXX - 24 [1080p BDRemux].mkv (7.5 GiB)
Thanks for completing this!