[Aparviel] DARLING in the FRANXX Vol.7 (w/ SP2) [1080p BDRemux]

Category:
Date:
2018-12-16 08:39 UTC
Submitter:
Seeders:
1
Information:
Leechers:
0
File size:
30.0 GiB
Completed:
36
Info hash:
0ff5ce340c25a94a5540df85d59566162c1b088a
### 7th Blu-ray volume of DARLING in the FRANXX #### ANZX-14453 --- ##### All episodes have second and third audio track with exclusive commentary ##### Includes #2 special - Playback Special Program 2 --- ![alt text](https://i.imgur.com/LXnIoFB.jpg "") --- ### Info ``` General Complete name : D:\DARLING in the FRANXX Vol.7 [1080p BDRemux]\DARLING in the FRANXX - 19 [1080p BDRemux].mkv Format : Matroska Format version : Version 4 / Version 2 File size : 7.50 GiB Duration : 24 min 2 s Overall bit rate mode : Variable Overall bit rate : 44.7 Mb/s Movie name : DARLING in the FRANXX Vol.7 Writing application : mkvmerge v25.0.0 ('Prog Noir') 64-bit Writing library : libebml v1.3.6 + libmatroska v1.4.9 Video ID : 1 Codec ID : V_MPEG4/ISO/AVC Duration : 24 min 2 s Bit rate mode : Variable Bit rate : 37.8 Mb/s Maximum bit rate : 40.0 Mb/s Width : 1 920 pixels Height : 1 080 pixels Display aspect ratio : 16:9 Frame rate mode : Constant Frame rate : 23.976 (24000/1001) FPS Color space : YUV Chroma subsampling : 4:2:0 Bit depth : 8 bits Scan type : Progressive Bits/(Pixel*Frame) : 0.760 Stream size : 6.34 GiB (85%) Audio #1 ID : 2 Format : PCM Codec ID : A_PCM/INT/LIT Bit rate mode : Constant Bit rate : 2 304 kb/s Channel(s) : 2 channels Sampling rate : 48.0 kHz Bit depth : 24 bits Stream size : 396 MiB (5%) Audio #2 ID : 3 Format : PCM Codec ID : A_PCM/INT/LIT Bit rate mode : Constant Bit rate : 2 304 kb/s Channel(s) : 2 channels Sampling rate : 48.0 kHz Bit depth : 24 bits Stream size : 396 MiB (5%) Audio #3 ID : 4 Format : PCM Codec ID : A_PCM/INT/LIT Bit rate mode : Constant Bit rate : 2 304 kb/s Channel(s) : 2 channels Sampling rate : 48.0 kHz Bit depth : 24 bits Stream size : 396 MiB (5%) ```

File list

  • DARLING in the FRANXX Vol.7 [1080p BDRemux]
    • Bonus
      • DARLING in the FRANXX - Ep 19 Preview.mkv (132.2 MiB)
      • DARLING in the FRANXX - Ep 20 Preview.mkv (133.2 MiB)
      • DARLING in the FRANXX - Ep 21 Preview.mkv (132.0 MiB)
      • Darling in the FranXX Vol.7 Menu.mkv (219.1 MiB)
      • IMG_0001.png (65.9 MiB)
      • IMG_0002.png (67.1 MiB)
    • DARLING in the FRANXX - 19 [1080p BDRemux].mkv (7.5 GiB)
    • DARLING in the FRANXX - 20 [1080p BDRemux].mkv (7.5 GiB)
    • DARLING in the FRANXX - 21 [1080p BDRemux].mkv (7.5 GiB)
    • DARLING in the FRANXX - SP2 [1080p BDRemux].mkv (6.7 GiB)