[Aparviel] DARLING in the FRANXX Making Documentary [DVDRemux]

Category:
Date:
2018-12-16 05:53 UTC
Submitter:
Seeders:
0
Information:
Leechers:
0
File size:
4.1 GiB
Completed:
93
Info hash:
d8b0da19fb91fc992ad2db56b4b527b44bf28689
### DARLING in the FRANXX Making Documentary, which comes in 8th BD/DVD release. ダーリン・イン・ザ・フランキス メイキングドキュメンタリー #### ANZX/ZB-14456 --- ![alt text](https://i.imgur.com/pgXJO7p.jpg "") --- ### Info ``` General Complete name : D:\DARLING in the FRANXX Making Documentary\DARLING in the FRANXX Making Documentary.mkv Format : Matroska Format version : Version 2 File size : 4.10 GiB Duration : 1 h 5 min Overall bit rate mode : Variable Overall bit rate : 8 897 kb/s Writing application : MakeMKV v1.14.2 win(x64-release) Writing library : libmakemkv v1.14.2 (1.3.5/1.4.7) win(x64-release) Video ID : 1 Codec ID : V_MPEG2 Duration : 1 h 5 min Bit rate mode : Variable Bit rate : 8 700 kb/s Maximum bit rate : 9 800 kb/s Width : 720 pixels Height : 480 pixels Display aspect ratio : 16:9 Frame rate mode : Constant Frame rate : 29.970 (30000/1001) FPS Standard : NTSC Color space : YUV Chroma subsampling : 4:2:0 Bit depth : 8 bits Scan type : Interlaced Scan order : Top Field First Compression mode : Lossy Bits/(Pixel*Frame) : 0.840 Time code of first frame : 00:59:59:00 Time code source : Group of pictures header Stream size : 4.01 GiB (98%) Original source medium : DVD-Video Audio ID : 2 ID in the original source medium : 189 (0xBD)128 (0x80) Format : AC-3 Format/Info : Audio Coding 3 Codec ID : A_AC3 Duration : 1 h 5 min Bit rate mode : Constant Bit rate : 192 kb/s Sampling rate : 48.0 kHz Bit depth : 16 bits Compression mode : Lossy Stream size : 90.6 MiB (2%) Title : Stereo Language : Japanese Service kind : Complete Main ```

File list