[Neutrinome] Darling in the FranXX (Vol.8) - VOSTFR [1080p BDRip FLAC] + DDL

Category:
Date:
2018-12-14 17:52 UTC
Submitter:
Seeders:
0
Information:
Leechers:
0
File size:
4.9 GiB
Completed:
29
Info hash:
b7e6f10eaca172762cbbc1a15f495820dbbd0c93
Darling in the FranXX BD Volume 8 ====== *** ![alt text](https://darli-fra.jp/assets/img/common/bddvd/pkg_08.jpg) *** * **Date de sortie** : 2018 * **Durée** : 3*24min * **Licencié** : Crunchyroll * **Vidéo** : Beatrice-Raws * **Sous-titre** : Crunchyroll * **Lien DDL** : [Uptobox](https://uptobox.com/gdkth3q8wv9e) *** **NFO** General Unique ID : 318297575250315638119744738929480299058 (0xEF75E215774382BCA461D23F5B4FF232) Format : Matroska Format version : Version 4 / Version 2 File size : 1.50 GiB Duration : 24 min 1 s Overall bit rate mode : Variable Overall bit rate : 8 941 kb/s Encoded date : UTC 2018-12-14 17:30:55 Writing application : mkvmerge v29.0.0 ('Like It Or Not') 64-bit Writing library : libebml v1.3.6 + libmatroska v1.4.9 Video ID : 1 Format : AVC Format/Info : Advanced Video Codec Format profile : High 10@L5 Format settings, CABAC : Yes Format settings, RefFrames : 4 frames Codec ID : V_MPEG4/ISO/AVC Duration : 24 min 1 s Bit rate : 7 606 kb/s Width : 1 920 pixels Height : 1 080 pixels Display aspect ratio : 16:9 Frame rate mode : Constant Frame rate : 23.976 (24000/1001) FPS Color space : YUV Chroma subsampling : 4:2:0 Bit depth : 10 bits Scan type : Progressive Bits/(Pixel*Frame) : 0.153 Stream size : 1.28 GiB (85%) Title : Jensen & DJATOM & Horodep Writing library : x264 core 155 r2901M 7d0ff22 (DJATOM's mod) Encoding settings : cabac=1 / ref=4 / deblock=1:1:-1 / analyse=0x3:0x113 / me=umh / subme=9 / psy=1 / fade_compensate=0.00 / psy_rd=1.00:0.00 / mixed_ref=1 / me_range=32 / chroma_me=1 / trellis=2 / 8x8dct=1 / cqm=0 / deadzone=21,11 / fast_pskip=1 / chroma_qp_offset=-2 / threads=34 / lookahead_threads=5 / sliced_threads=0 / nr=0 / decimate=1 / interlaced=0 / bluray_compat=0 / constrained_intra=0 / bframes=9 / b_pyramid=2 / b_adapt=2 / b_bias=0 / direct=1 / weightb=1 / open_gop=0 / weightp=2 / keyint=240 / keyint_min=23 / scenecut=40 / intra_refresh=0 / rc=crf / mbtree=0 / crf=15.5000 / qcomp=0.72 / qpmin=0 / qpmax=81 / qpstep=4 / ip_ratio=1.40 / pb_ratio=1.30 / aq=1:0.85 Language : Japanese Default : Yes Forced : No Color range : Limited Color primaries : BT.709 Transfer characteristics : BT.709 Matrix coefficients : BT.709 Audio ID : 2 Format : FLAC Format/Info : Free Lossless Audio Codec Codec ID : A_FLAC Duration : 24 min 1 s Bit rate mode : Variable Bit rate : 1 333 kb/s Channel(s) : 2 channels Channel positions : Front: L R Sampling rate : 48.0 kHz Frame rate : 11.719 FPS (4096 SPF) Bit depth : 24 bits Stream size : 229 MiB (15%) Writing library : libFLAC 1.3.2 (UTC 2017-01-01) Language : Japanese Default : Yes Forced : No Text ID : 3 Format : ASS Codec ID : S_TEXT/ASS Codec ID/Info : Advanced Sub Station Alpha Duration : 23 min 59 s Bit rate : 118 b/s Count of elements : 310 Compression mode : Lossless Stream size : 20.8 KiB (0%) Title : Français Language : French Default : Yes Forced : No Menu 00:00:00.000 : :Avant 00:01:01.979 : :OP 00:02:32.027 : :Part A 00:10:12.070 : :Part B 00:22:14.833 : :ED

File list