[Mushin] Kagerou Daze - In a Day's (BD 1080P HEVC 10bit FLAC+5.1 WP).mkv

Category:
Date:
2018-12-05 12:25 UTC
Submitter:
Anonymous
Seeders:
5
File size:
686.8 MiB
Completed:
314
Info hash:
1438c8039a8a2a5366daaa5c2f889de767a88f12
Hi-Fan Anime warning This anime BD already long time 2018-03-16 Unfortunately .Don’t have real fan-subbed made it but I don' give up , I need watch? "I make Hobby Sub Eng to watch for myself and save anime this “ Share Free soft subbed for someone want edit or translate. Of course I translation by tools all (Google ,Web dictionary,other,books) maybe wrong Grammar So please don’t expect quality " This is Hobby Sub” then enough watch Anime for Understand. " I translated by my understand. I guess some sentence." " I hope real fan-sub will improve to best." Sorry for any inaccuracies, English is not my first language. I hope Fan Anime this Enjoy&Fun Who want download? go ahead. [Mushin] Kagerou Daze - In a Day's (BD 1080P HEVC 10bit FLAC+5.1 WP).mkv Source raw KAGEROU DAZE In a day's BD25 [RAW] ReEncode Format : HEVC Format/Info : High Efficiency Video Coding Format profile : @L5.1@Main Duration : 23 min 11 s Bit rate : 2 387 kb/s Width : 1 920 pixels Height : 1 080 pixels Display aspect ratio : 16:9 Color space : YUV Chroma subsampling : 4:2:2 Bit depth : 10 bits Stream size : 396 MiB (58%) Title : x265 10bit Audio Format : FLAC Duration : 23 min 11 s Bit rate mode : Variable Bit rate : 700 kb/s Channel(s) : 2 channels Channel layout : L R Bit depth : 24 bits Stream size : 116 MiB (17%) Language : Japanese Audio #2 Format : WavPack Duration : 23 min 11 s Bit rate mode : Variable Bit rate : 1 042 kb/s Channel(s) : 6 channels Channel(s)_Original : 2 channels Sampling rate : 48.0 kHz Stream size : 173 MiB (25%) Language : Japanese Text Format : ASS Language : English

File list

  • [Mushin] Kagerou Daze - In a Day's (BD 1080P HEVC 10bit FLAC+5.1 WP).mkv (686.8 MiB)