Akame ga Kill! [BDrip 1080p 10bit 444 x264] [Dual-Audio]

Category:
Date:
2018-11-28 08:01 UTC
Submitter:
Seeders:
1
File size:
16.0 GiB
Completed:
284
Info hash:
9043adc14a5108fda863dced1efef033cb7dfd2d
![AkamegaKillImg](https://img00.deviantart.net/2ee8/i/2014/329/1/9/akame_ga_kill_wallpaper_esdeath_tatsumi_and_akame_by_princeblckjester-d87o1c6.png) ## **Akame ga Kill!** >__Video:__ BDrip 1080p 10bit 444 *x264* CRF 18 slower >__Audio:__ BDrip Japanese *libVorbis* Stereo 320Kb/s >__Audio:__ BDrip English *libVorbis* Stereo 320Kb/s >__Text:__ English *WebVTT* HorribleSubs (destylised) > >End credits truncated ### Mediainfo ``` Format : Matroska Overall bit rate mode : Variable Overall bit rate : 4 168 kb/s Video Format : AVC Format profile : High 4:4:4 Predictive@L5.1 Format settings : CABAC / 14 Ref Frames Format settings, CABAC : Yes Format settings, ReFrames : 14 frames Bit rate : 3 445 kb/s Width : 1 920 pixels Height : 1 080 pixels Display aspect ratio : 16:9 Frame rate mode : Constant Frame rate : 23.976 (24000/1001) FPS Chroma subsampling : 4:4:4 Bit depth : 10 bits Scan type : Progressive Encoding settings : cabac=1 / ref=14 / deblock=1:0:0 / analyse=0x1:0x111 / me=umh / subme=8 / psy=1 / psy_rd=1.00:0.00 / mixed_ref=1 / me_range=16 / chroma_me=1 / trellis=2 / 8x8dct=0 / cqm=0 / deadzone=21,11 / fast_pskip=1 / chroma_qp_offset=4 / nr=0 / decimate=0 / interlaced=0 / constrained_intra=0 / bframes=16 / b_pyramid=2 / b_adapt=2 / b_bias=0 / direct=3 / weightb=1 / open_gop=0 / weightp=2 / keyint=250 / keyint_min=23 / scenecut=40 / intra_refresh=0 / rc_lookahead=60 / rc=crf / mbtree=1 / crf=18.0 / qcomp=0.60 / qpmin=0 / qpmax=81 / qpstep=4 / ip_ratio=1.40 / aq=1:1.00 Audio #1 Format : Vorbis Bit rate mode : Variable Bit rate : 320 kb/s Channel(s) : 2 channels Sampling rate : 48.0 kHz Stream size : 50.2 MiB (8%) Language : Japanese Audio #2 Format : Vorbis Bit rate mode : Variable Bit rate : 320 kb/s Channel(s) : 2 channels Sampling rate : 48.0 kHz Stream size : 50.2 MiB (8%) Language : English Text Format : D_WEBVTT/SUBTITLES Language : English Default : Yes ```

File list

  • Akame ga Kill
    • Akame ga Kill - 01 - Kill the Darkness.mkv (624.3 MiB)
    • Akame ga Kill - 02 - Kill Authority.mkv (650.1 MiB)
    • Akame ga Kill - 03 - Kill the Grudge.mkv (733.3 MiB)
    • Akame ga Kill - 04 - Kill the Imperial Arms User.mkv (598.6 MiB)
    • Akame ga Kill - 05 - Kill the Empty Dream.mkv (632.8 MiB)
    • Akame ga Kill - 06 - Kill Absolute Justice.mkv (963.9 MiB)
    • Akame ga Kill - 07 - Kill the Three Beasts Part 1.mkv (591.2 MiB)
    • Akame ga Kill - 08 - Kill the Three Beasts Part 2.mkv (742.8 MiB)
    • Akame ga Kill - 09 - Kill the Lust for Combat.mkv (625.3 MiB)
    • Akame ga Kill - 10 - Kill the Seduction.mkv (617.6 MiB)
    • Akame ga Kill - 11 - Kill the Mad Scientist.mkv (600.2 MiB)
    • Akame ga Kill - 12 - Kill the New Recruits.mkv (653.3 MiB)
    • Akame ga Kill - 13 - Kill the Hindrance.mkv (615.0 MiB)
    • Akame ga Kill - 14 - Kill the Giant Dangerous Beast.mkv (653.9 MiB)
    • Akame ga Kill - 15 - Kill the Religion.mkv (624.1 MiB)
    • Akame ga Kill - 16 - Kill the Dolls.mkv (837.3 MiB)
    • Akame ga Kill - 17 - Kill the Curse.mkv (725.5 MiB)
    • Akame ga Kill - 18 - Kill the Demons.mkv (609.5 MiB)
    • Akame ga Kill - 19 - Kill Fate.mkv (760.4 MiB)
    • Akame ga Kill - 20 - Kill Pandemonium.mkv (721.9 MiB)
    • Akame ga Kill - 21 - Kill Despair.mkv (682.5 MiB)
    • Akame ga Kill - 22 - Kill the Little Sister.mkv (638.0 MiB)
    • Akame ga Kill - 23 - Kill the Emperor.mkv (723.5 MiB)
    • Akame ga Kill - 24 - Akame ga Kill.mkv (797.2 MiB)