[Tess] Owarimonogatari S2 [BD 1080p x264 10bit FLAC]

Category:
Date:
2018-11-14 22:34 UTC
Submitter:
Seeders:
6
Information:
No information.
Leechers:
2
File size:
4.5 GiB
Completed:
4038
Info hash:
e2e9999cdd9bf568f4f3a6726a70f9f4474797eb
Video Source: BDMV Subs: BDMV PGS Mediainfo: >General >Unique ID : 122077562474714989758130843054112368233 (0x5BD748870E3F40128D0BA1DA4DE9E669) >Complete name : [Tess] Owarimonogatari S2 - 01 [BD 1080p x264 10bit FLAC][ECD186A7].mkv >Format : Matroska >Format version : Version 4 / Version 2 >File size : 854 MiB >Duration : 24 min 2 s >Overall bit rate mode : Variable >Overall bit rate : 4 967 kb/s >Encoded date : UTC 2018-11-14 20:14:47 >Writing application : mkvmerge v28.2.0 ('The Awakening') 64-bit >Writing library : libebml v1.3.6 + libmatroska v1.4.9 > >Video >ID : 1 >Format : AVC >Format/Info : Advanced Video Codec >Format profile : High 10@L5.1 >Format settings, CABAC : Yes >Format settings, ReFrames : 16 frames >Codec ID : V_MPEG4/ISO/AVC >Duration : 24 min 2 s >Bit rate : 3 549 kb/s >Width : 1 920 pixels >Height : 1 080 pixels >Display aspect ratio : 16:9 >Frame rate mode : Constant >Frame rate : 23.976 (24000/1001) FPS >Color space : YUV >Chroma subsampling : 4:2:0 >Bit depth : 10 bits >Scan type : Progressive >Bits/(Pixel*Frame) : 0.071 >Stream size : 610 MiB (71%) >Writing library : x264 core 157 r2935 545de2f >Encoding settings : cabac=1 / ref=16 / deblock=1:1:1 / analyse=0x3:0x133 / me=umh / subme=10 / psy=1 / psy_rd=0.40:0.00 / mixed_ref=1 / me_range=24 / chroma_me=1 / trellis=2 / 8x8dct=1 / cqm=0 / deadzone=21,11 / fast_pskip=1 / chroma_qp_offset=-2 / threads=12 / lookahead_threads=3 / sliced_threads=0 / nr=0 / decimate=1 / interlaced=0 / bluray_compat=0 / constrained_intra=0 / bframes=10 / b_pyramid=2 / b_adapt=2 / b_bias=0 / direct=3 / weightb=1 / open_gop=0 / weightp=2 / keyint=250 / keyint_min=23 / scenecut=40 / intra_refresh=0 / rc_lookahead=60 / rc=crf / mbtree=1 / crf=16.0 / qcomp=0.60 / qpmin=0 / qpmax=81 / qpstep=4 / ip_ratio=1.40 / aq=1:0.60 >Default : Yes >Forced : No > >Audio >ID : 2 >Format : FLAC >Format/Info : Free Lossless Audio Codec >Codec ID : A_FLAC >Duration : 24 min 2 s >Bit rate mode : Variable >Bit rate : 1 396 kb/s >Channel(s) : 2 channels >Channel positions : Front: L R >Sampling rate : 48.0 kHz >Frame rate : 10.417 FPS (4608 spf) >Bit depth : 24 bits >Stream size : 240 MiB (28%) >Language : Japanese >Default : Yes >Forced : No > >Text >ID : 3 >Format : PGS >Muxing mode : zlib >Codec ID : S_HDMV/PGS >Codec ID/Info : Picture based subtitle format used on BDs/HD-DVDs >Duration : 23 min 54 s >Bit rate : 46.3 kb/s >Count of elements : 584 >Stream size : 7.92 MiB (1%) >Language : English >Default : Yes >Forced : No > >Menu >00:00:00.000 : :Chapter 01 >00:01:48.024 : :Chapter 02 >00:03:18.072 : :Chapter 03 >00:14:08.097 : :Chapter 04 >00:22:30.140 : :Chapter 05

File list

  • [Tess] Owarimonogatari S2 [BD 1080p x264 10bit FLAC]
    • [Tess] Owarimonogatari S2 - 01 [BD 1080p x264 10bit FLAC][ECD186A7].mkv (854.2 MiB)
    • [Tess] Owarimonogatari S2 - 02 [BD 1080p x264 10bit FLAC][A8217E32].mkv (665.0 MiB)
    • [Tess] Owarimonogatari S2 - 03 [BD 1080p x264 10bit FLAC][ED70F622].mkv (634.0 MiB)
    • [Tess] Owarimonogatari S2 - 04 [BD 1080p x264 10bit FLAC][B90A08F3].mkv (651.0 MiB)
    • [Tess] Owarimonogatari S2 - 05 [BD 1080p x264 10bit FLAC][56123F76].mkv (563.5 MiB)
    • [Tess] Owarimonogatari S2 - 06 [BD 1080p x264 10bit FLAC][1E8F5755].mkv (564.7 MiB)
    • [Tess] Owarimonogatari S2 - 07 [BD 1080p x264 10bit FLAC][CD0E2F9C].mkv (672.9 MiB)
>Owarimonogatari S2 Finally a good fansu- >BDMV PGS :'(
~~What's the difference between this and your previous release?~~ Nvm, you split the files into one per episode like I asked on the previous post. Thanks for listening to feedback! :3