[Neutrinome] Darling in the FranXX Vol.6 - VOSTFR [1080p BDRemux] + DDL

Category:
Date:
2018-11-13 17:25 UTC
Submitter:
Seeders:
0
Information:
Leechers:
0
File size:
27.1 GiB
Completed:
23
Info hash:
8f22504ce5683f3287f355ce2d0e523040e15b58
Darling in the FranXX BD Volume 6 ====== *** ![alt text](https://darli-fra.jp/assets/img/common/bddvd/pkg_06.jpg) *** * **Date de sortie** : 2018 * **Durée** : 3*24min * **Licencié** : Crunchyroll * **Vidéo BDMV** : Aparviel * **Sous-titre** : Crunchyroll * **Lien DDL** : [Uptobox](https://uptobox.com/d7byj3ttxb03) *** **NFO** General Unique ID : 135062968630141400155024352103601042992 (0x659C2E7B2066B97AC45FA870C5387630) Format : Matroska Format version : Version 4 / Version 2 File size : 6.73 GiB Duration : 24 min 2 s Overall bit rate mode : Variable Overall bit rate : 40.1 Mb/s Movie name : DARLING in the FRANXX Vol.6 Encoded date : UTC 2018-11-10 15:22:53 Writing application : mkvmerge v28.2.0 ('The Awakening') 64-bit Writing library : libebml v1.3.6 + libmatroska v1.4.9 Video ID : 1 Format : AVC Format/Info : Advanced Video Codec Format profile : High@L4.1 Format settings, CABAC : Yes Format settings, RefFrames : 4 frames Format settings, GOP : M=3, N=12 Codec ID : V_MPEG4/ISO/AVC Duration : 24 min 2 s Bit rate mode : Variable Bit rate : 37.8 Mb/s Maximum bit rate : 40.0 Mb/s Width : 1 920 pixels Height : 1 080 pixels Display aspect ratio : 16:9 Frame rate mode : Constant Frame rate : 23.976 (24000/1001) FPS Color space : YUV Chroma subsampling : 4:2:0 Bit depth : 8 bits Scan type : Progressive Bits/(Pixel*Frame) : 0.760 Stream size : 6.34 GiB (94%) Default : No Forced : No Audio ID : 2 Format : PCM Codec ID : A_PCM/INT/LIT Duration : 24 min 2 s Bit rate mode : Constant Bit rate : 2 304 kb/s Channel(s) : 2 channels Sampling rate : 48.0 kHz Frame rate : 30.000 FPS (1600 SPF) Bit depth : 24 bits Stream size : 396 MiB (6%) Language : Japanese Default : Yes Forced : No Text ID : 3 Format : ASS Codec ID : S_TEXT/ASS Codec ID/Info : Advanced Sub Station Alpha Duration : 22 min 48 s Bit rate : 140 b/s Count of elements : 338 Compression mode : Lossless Stream size : 23.5 KiB (0%) Title : Français Language : French Default : Yes Forced : No

File list

  • [Neutrinome] Darling in the FranXX Vol.6 [VOSTFR 1080p BDRemux]
    • EXTRA
      • Menu 06.mkv (208.5 MiB)
      • [Neutrinome] Darling in the FranXX - SP1 - VOSTFR [1080p BDRemux].mkv (6.7 GiB)
    • [Neutrinome] Darling in the FranXX - 16 - VOSTFR [1080p BDRemux].mkv (6.7 GiB)
    • [Neutrinome] Darling in the FranXX - 17 - VOSTFR [1080p BDRemux].mkv (6.7 GiB)
    • [Neutrinome] Darling in the FranXX - 18 - VOSTFR [1080p BDRemux].mkv (6.7 GiB)