[Neutrinome] Darling in the FranXX Vol.5 - VOSTFR [1080p BDRemux] + DDL

Category:
Date:
2018-11-13 17:21 UTC
Submitter:
Seeders:
0
Information:
Leechers:
0
File size:
20.3 GiB
Completed:
24
Info hash:
dcf1646d8c4dd176c9ace76bb2619be5ea21edc4
Darling in the FranXX BD Volume 5 ====== *** ![alt text](https://darli-fra.jp/assets/img/common/bddvd/pkg_05.jpg) *** * **Date de sortie** : 2018 * **Durée** : 3*24min * **Licencié** : Crunchyroll * **Vidéo BDMV** : Aparviel * **Sous-titre** : Crunchyroll * **Lien DDL** : [Uptobox](https://uptobox.com/r9ahukljdiqe) *** **NFO** General Unique ID : 143215881340275948478904455790297059371 (0x6BBE601CBCE32F678F12709317EB902B) Format : Matroska Format version : Version 4 / Version 2 File size : 6.62 GiB Duration : 24 min 2 s Overall bit rate mode : Variable Overall bit rate : 39.4 Mb/s Movie name : DARLING in the FRANXX Vol.5 Encoded date : UTC 2018-11-10 15:13:04 Writing application : mkvmerge v28.2.0 ('The Awakening') 64-bit Writing library : libebml v1.3.6 + libmatroska v1.4.9 Video ID : 1 Format : AVC Format/Info : Advanced Video Codec Format profile : High@L4.1 Format settings, CABAC : Yes Format settings, RefFrames : 4 frames Codec ID : V_MPEG4/ISO/AVC Duration : 24 min 2 s Bit rate mode : Variable Bit rate : 37.1 Mb/s Maximum bit rate : 40.0 Mb/s Width : 1 920 pixels Height : 1 080 pixels Display aspect ratio : 16:9 Frame rate mode : Constant Frame rate : 23.976 (24000/1001) FPS Color space : YUV Chroma subsampling : 4:2:0 Bit depth : 8 bits Scan type : Progressive Bits/(Pixel*Frame) : 0.747 Stream size : 6.23 GiB (94%) Default : No Forced : No Audio ID : 2 Format : PCM Codec ID : A_PCM/INT/LIT Duration : 24 min 2 s Bit rate mode : Constant Bit rate : 2 304 kb/s Channel(s) : 2 channels Sampling rate : 48.0 kHz Frame rate : 30.000 FPS (1600 SPF) Bit depth : 24 bits Stream size : 396 MiB (6%) Language : Japanese Default : Yes Forced : No Text ID : 3 Format : ASS Codec ID : S_TEXT/ASS Codec ID/Info : Advanced Sub Station Alpha Duration : 22 min 36 s Bit rate : 121 b/s Count of elements : 295 Compression mode : Lossless Stream size : 20.2 KiB (0%) Title : Français Language : French Default : Yes Forced : No

File list