Ghost in the Shell (1995) BDRip [2160p, HEVC, LPCM 2.0]

Category:
Date:
2018-11-08 21:38 UTC
Submitter:
Seeders:
4
Information:
No information.
Leechers:
3
File size:
11.1 GiB
Completed:
75
Info hash:
736a13d7dad62306d4556abd90cb4c855df0140b
![](https://dyncdn.me/mimages/1796/poster_opt.jpg) __Mediainfo:__ ``` Video ID : 1 Format : HEVC Format/Info : High Efficiency Video Coding Commercial name : HDR10 Format profile : Main 10@L5.1@High Codec ID : V_MPEGH/ISO/HEVC Duration : 1 h 22 min Bit rate : 14.2 Mb/s Width : 3 840 pixels Height : 2 074 pixels Display aspect ratio : 1.85:1 Frame rate mode : Constant Frame rate : 23.976 (24000/1001) FPS Color space : YUV Chroma subsampling : 4:2:0 (Type 2) Bit depth : 10 bits Bits/(Pixel*Frame) : 0.074 Stream size : 8.22 GiB (75%) Writing library : x265 2.8+10-703eade86b53:[Windows][MSVC 1914][64 bit] 10bit Encoding settings : cpuid=1111039 / frame-threads=4 / numa-pools=20 / wpp / no-pmode / no-pme / no-psnr / no-ssim / log-level=2 / input-csp=1 / input-res=3840x2074 / interlace=0 / total-frames=119280 / level-idc=51 / high-tier=1 / uhd-bd=0 / ref=4 / no-allow-non-conformance / repeat-headers / annexb / aud / hrd / info / hash=0 / no-temporal-layers / no-open-gop / min-keyint=1 / keyint=24 / gop-lookahead=0 / bframes=4 / b-adapt=2 / b-pyramid / bframe-bias=0 / rc-lookahead=25 / lookahead-slices=4 / scenecut=40 / radl=0 / no-intra-refresh / ctu=64 / min-cu-size=8 / rect / no-amp / max-tu-size=32 / tu-inter-depth=1 / tu-intra-depth=1 / limit-tu=0 / rdoq-level=2 / dynamic-rd=0.00 / no-ssim-rd / signhide / no-tskip / nr-intra=0 / nr-inter=0 / no-constrained-intra / no-strong-intra-smoothing / max-merge=3 / limit-refs=3 / limit-modes / me=3 / subme=3 / merange=57 / temporal-mvp / weightp / no-weightb / no-analyze-src-pics / deblock=2:1 / no-sao / no-sao-non-deblock / rd=4 / no-early-skip / rskip / no-fast-intra / no-tskip-fast / no-cu-lossless / no-b-intra / no-splitrd-skip / rdpenalty=0 / psy-rd=2.00 / psy-rdoq=1.00 / no-rd-refine / no-lossless / cbqpoffs=0 / crqpoffs=0 / rc=crf / crf=17.0 / qcomp=0.60 / qpstep=4 / stats-write=0 / stats-read=0 / vbv-maxrate=160000 / vbv-bufsize=160000 / vbv-init=0.9 / crf-max=0.0 / crf-min=0.0 / ipratio=1.40 / pbratio=1.30 / aq-mode=1 / aq-strength=1.00 / cutree / zone-count=0 / no-strict-cbr / qg-size=32 / no-rc-grain / qpmax=69 / qpmin=0 / no-const-vbv / sar=1 / overscan=0 / videoformat=5 / range=0 / colorprim=9 / transfer=16 / colormatrix=9 / chromaloc=1 / chromaloc-top=2 / chromaloc-bottom=2 / display-window=0 / master-display=G(8500,39850)B(6550,2300)R(35400,14600)WP(15635,16450)L(10000000,50) / max-cll=873,271 / min-luma=0 / max-luma=1023 / log2-max-poc-lsb=8 / vui-timing-info / vui-hrd-info / slices=1 / no-opt-qp-pps / no-opt-ref-list-length-pps / no-multi-pass-opt-rps / scenecut-bias=0.05 / no-opt-cu-delta-qp / no-aq-motion / hdr / hdr-opt / no-dhdr10-opt / no-idr-recovery-sei / analysis-reuse-level=5 / scale-factor=0 / refine-intra=0 / refine-inter=0 / refine-mv=0 / no-limit-sao / ctu-info=0 / no-lowpass-dct / refine-mv-type=0 / copy-pic=1 / max-ausize-factor=1.0 / no-dynamic-refine / no-single-sei Default : Yes Forced : No Color range : Limited Color primaries : BT.2020 Transfer characteristics : PQ Matrix coefficients : BT.2020 non-constant Mastering display color primaries : BT.2020 Mastering display luminance : min: 0.0050 cd/m2, max: 1000 cd/m2 Maximum Content Light Level : 873 cd/m2 Maximum Frame-Average Light Level : 271 cd/m2 Audio #1 ID : 2 Format : PCM Format settings : Little / Signed Codec ID : A_PCM/INT/LIT Duration : 1 h 22 min Bit rate mode : Constant Bit rate : 2 304 kb/s Channel(s) : 2 channels Sampling rate : 48.0 kHz Frame rate : 32.000 FPS (1500 SPF) Bit depth : 24 bits Stream size : 1.33 GiB (12%) Language : Japanese Default : Yes Forced : No Audio #2 ID : 3 Format : PCM Format settings : Little / Signed Codec ID : A_PCM/INT/LIT Duration : 1 h 22 min Bit rate mode : Constant Bit rate : 2 304 kb/s Channel(s) : 2 channels Sampling rate : 48.0 kHz Frame rate : 32.000 FPS (1500 SPF) Bit depth : 24 bits Stream size : 1.33 GiB (12%) Language : English Default : No Forced : No Text #1 ID : 4 Format : PGS Muxing mode : zlib Codec ID : S_HDMV/PGS Codec ID/Info : Picture based subtitle format used on BDs/HD-DVDs Duration : 1 h 22 min Bit rate : 35.1 kb/s Count of elements : 1633 Stream size : 20.7 MiB (0%) Language : English Default : Yes Forced : No Text #2 ID : 5 Format : PGS Muxing mode : zlib Codec ID : S_HDMV/PGS Codec ID/Info : Picture based subtitle format used on BDs/HD-DVDs Duration : 1 h 22 min Bit rate : 23.5 kb/s Count of elements : 1384 Stream size : 13.9 MiB (0%) Language : Japanese Default : No Forced : No Menu 00:00:00.000 : en:00:00:00.000 00:04:06.121 : en:00:04:06.121 00:08:24.754 : en:00:08:24.754 00:13:15.169 : en:00:13:15.169 00:24:17.706 : en:00:24:17.706 00:26:05.147 : en:00:26:05.147 00:27:40.158 : en:00:27:40.158 00:33:02.981 : en:00:33:02.981 00:36:21.513 : en:00:36:21.513 00:45:32.271 : en:00:45:32.271 00:53:59.486 : en:00:53:59.486 00:59:40.327 : en:00:59:40.327 01:06:24.355 : en:01:06:24.355 01:13:58.434 : en:01:13:58.434 01:17:31.438 : en:01:17:31.438 01:22:41.957 : en:01:22:41.957 ``` ![](https://cdn.imagecurl.com/images/21481446253667037475.png)

File list

  • Ghost.in.the.Shell.1995.2160p.UHD.BluRay.x265-HAiKU
    • Sample
      • ghost.in.the.shell.1995.2160p.uhd.bluray.x265-haiku.sample.mkv (183.1 MiB)
    • RARBG.txt (31 Bytes)
    • ghost.in.the.shell.1995.2160p.uhd.bluray.x265-haiku.mkv (10.9 GiB)
    • ghost.in.the.shell.1995.2160p.uhd.bluray.x265-haiku.nfo (737 Bytes)

Comments - 8

Is this HDR or a poor HDR conversion? The colors look all washed out.
not far off from the original US blu-ray in terms of color actually lmao gits is a very grey film
I looked at screenshots of several different 1080p BD encodes and the colors are much better. Personally I'd rather watch those than this one from looking at the screenshots color wise. The point being is this an HDR encode? If it is that will explain the washed out colors on a non HDR screen. The title says HDR on the site this was taken from but it is not stated in the title here and it makes a big difference for those downloading it.
all BD releases are worse than the old HDTV release lol
Maxx The image color is listed as 10-bit which implies HDR color gamut, but who knows if it was downgraded to SDR beforehand.
There is no definitive version of GITS. Due to the technical level of that era, GITS is a messy masterpiece. There are only two good versions of it; either UHD version or that old HDTV recording.
10-bit doesn't mean HDR, they've been using 10-bit for years (hello Hi10P). The BT.2020 color space though should indicate HDR as that is the flag needed by most 4K TV sets to recognize and treat it as HDR so the colors come out correctly, if you have everything needed to do so.
are u able to download from baidu?