Mary and the Witchs Flower (2017) BDRip [2160p, HEVC, DTS-X 7.1]

Category:
Date:
2018-11-08 21:31 UTC
Submitter:
Seeders:
4
Information:
No information.
Leechers:
3
File size:
11.6 GiB
Completed:
64
Info hash:
82359045bce5ff8663d0bb4ac08c50668a165507
__Mediainfo:__ ``` Video ID : 1 Format : HEVC Format/Info : High Efficiency Video Coding Commercial name : HDR10 Format profile : Main 10@L5.1@High Codec ID : V_MPEGH/ISO/HEVC Duration : 1 h 42 min Bit rate : 7 628 kb/s Width : 3 840 pixels Height : 2 076 pixels Display aspect ratio : 1.85:1 Frame rate mode : Constant Frame rate : 23.976 (24000/1001) FPS Color space : YUV Chroma subsampling : 4:2:0 (Type 2) Bit depth : 10 bits Bits/(Pixel*Frame) : 0.040 Stream size : 5.48 GiB (47%) Title : Mary.and.the.Witchs.Flower.2017.JAPANESE.2160p.BluRay.x265.10bit.HDR.DTS-X.7.1-SWTYBLZ Writing library : x265 2.5+4-b4a5bcfe29c7:[Windows][GCC 4.9.3][64 bit] 10bit Encoding settings : cpuid=1173503 / frame-threads=16 / numa-pools=24,24,24,24 / wpp / no-pmode / no-pme / no-psnr / no-ssim / log-level=2 / input-csp=1 / input-res=3840x2076 / interlace=0 / total-frames=0 / level-idc=51 / high-tier=1 / uhd-bd=0 / ref=3 / no-allow-non-conformance / repeat-headers / annexb / aud / hrd / info / hash=0 / no-temporal-layers / no-open-gop / min-keyint=1 / keyint=24 / bframes=4 / b-adapt=2 / b-pyramid / bframe-bias=0 / rc-lookahead=25 / lookahead-slices=4 / scenecut=40 / no-intra-refresh / ctu=64 / min-cu-size=8 / no-rect / no-amp / max-tu-size=32 / tu-inter-depth=1 / tu-intra-depth=1 / limit-tu=0 / rdoq-level=0 / dynamic-rd=0.00 / no-ssim-rd / signhide / no-tskip / nr-intra=0 / nr-inter=0 / no-constrained-intra / strong-intra-smoothing / max-merge=2 / limit-refs=3 / no-limit-modes / me=1 / subme=2 / merange=57 / temporal-mvp / weightp / no-weightb / no-analyze-src-pics / deblock=0:0 / no-sao / no-sao-non-deblock / rd=3 / no-early-skip / rskip / no-fast-intra / no-tskip-fast / no-cu-lossless / no-b-intra / rdpenalty=0 / psy-rd=2.00 / psy-rdoq=0.00 / no-rd-refine / analysis-reuse-mode=0 / no-lossless / cbqpoffs=0 / crqpoffs=0 / rc=crf / crf=16.0 / qcomp=0.60 / qpstep=4 / stats-write=0 / stats-read=0 / vbv-maxrate=160000 / vbv-bufsize=160000 / vbv-init=0.9 / crf-max=0.0 / crf-min=0.0 / ipratio=1.40 / pbratio=1.30 / aq-mode=1 / aq-strength=1.00 / cutree / zone-count=0 / no-strict-cbr / qg-size=32 / no-rc-grain / qpmax=69 / qpmin=0 / no-const-vbv / sar=1 / overscan=0 / videoformat=5 / range=0 / colorprim=9 / transfer=16 / colormatrix=9 / chromaloc=1 / chromaloc-top=2 / chromaloc-bottom=2 / display-window=0 / master-display=G(13250,34500)B(7500,3000)R(34000,16000)WP(15635,16450)L(10000000,0) / max-cll=711,617 / min-luma=0 / max-luma=1023 / log2-max-poc-lsb=8 / vui-timing-info / vui-hrd-info / slices=1 / opt-qp-pps / opt-ref-list-length-pps / no-multi-pass-opt-rps / scenecut-bias=0.05 / no-opt-cu-delta-qp / no-aq-motion / hdr / hdr-opt / no-dhdr10-opt / analysis-reuse-level=5 / scale-factor=0 / refine-intra=0 / refine-inter=0 / refine-mv=0 / no-limit-sao / ctu-info=0 Default : Yes Forced : No Color range : Limited Color primaries : BT.2020 Transfer characteristics : PQ Matrix coefficients : BT.2020 non-constant Mastering display color primaries : Display P3 Mastering display luminance : min: 0.0000 cd/m2, max: 1000 cd/m2 Maximum Content Light Level : 711 cd/m2 Maximum Frame-Average Light Level : 617 cd/m2 Audio #1 ID : 2 Format : DTS Format/Info : Digital Theater Systems Format profile : X / MA / Core Codec ID : A_DTS Duration : 1 h 42 min Bit rate mode : Variable / Variable / Constant Bit rate : 7 768 kb/s / 7 768 kb/s / 1 509 kb/s Channel(s) : Object Based / 8 channels / 6 channels Channel positions : Object Based / Front: L C R, Side: L R, Back: L R, LFE / Front: L C R, Side: L R, LFE Sampling rate : / 48.0 kHz / 48.0 kHz Frame rate : 93.750 FPS (512 SPF) Bit depth : / 24 bits / 24 bits Compression mode : / Lossless / Lossy Delay relative to video : 7 ms Stream size : 5.58 GiB (48%) Title : Mary.and.the.Witchs.Flower.2017.JAPANESE.2160p.BluRay.x265.10bit.HDR.DTS-X.7.1-SWTYBLZ Language : Japanese Default : Yes Forced : No Audio #2 ID : 3 Format : AC-3 Format/Info : Audio Coding 3 Codec ID : A_AC3 Duration : 1 h 42 min Bit rate mode : Constant Bit rate : 640 kb/s Channel(s) : 6 channels Channel positions : Front: L C R, Side: L R, LFE Sampling rate : 48.0 kHz Frame rate : 31.250 FPS (1536 SPF) Bit depth : 16 bits Compression mode : Lossy Stream size : 471 MiB (4%) Title : Mary.and.the.Witchs.Flower.2017.JAPANESE.2160p.BluRay.x265.10bit.HDR.DTS-X.7.1-SWTYBLZ Language : Japanese Service kind : Complete Main Default : No Forced : No Text #1 ID : 4 Format : UTF-8 Codec ID : S_TEXT/UTF8 Codec ID/Info : UTF-8 Plain Text Duration : 1 h 42 min Bit rate : 36 b/s Count of elements : 1012 Stream size : 27.1 KiB (0%) Title : English-SRT Language : English Default : Yes Forced : No Text #2 ID : 5 Format : PGS Muxing mode : zlib Codec ID : S_HDMV/PGS Codec ID/Info : Picture based subtitle format used on BDs/HD-DVDs Duration : 1 h 41 min Bit rate : 24.7 kb/s Count of elements : 2028 Stream size : 18.0 MiB (0%) Title : English-PGS Language : English Default : No Forced : Yes Text #3 ID : 6 Format : PGS Muxing mode : zlib Codec ID : S_HDMV/PGS Codec ID/Info : Picture based subtitle format used on BDs/HD-DVDs Duration : 1 h 41 min Bit rate : 28.3 kb/s Count of elements : 3195 Stream size : 20.7 MiB (0%) Title : Japanese-PGS Language : Japanese Default : No Forced : No Menu 00:00:00.000 : en:Chapter 1 00:02:46.374 : en:Chapter 2 00:04:12.585 : en:Chapter 3 00:06:44.695 : en:Chapter 4 00:10:22.913 : en:Chapter 5 00:15:35.601 : en:Chapter 6 00:17:37.931 : en:Chapter 7 00:18:45.666 : en:Chapter 8 00:20:54.753 : en:Chapter 9 00:25:37.911 : en:Chapter 10 00:29:44.073 : en:Chapter 11 00:36:10.042 : en:Chapter 12 00:42:03.604 : en:Chapter 13 00:44:16.737 : en:Chapter 14 00:48:06.717 : en:Chapter 15 00:51:04.144 : en:Chapter 16 00:56:40.021 : en:Chapter 17 01:00:12.692 : en:Chapter 18 01:05:13.868 : en:Chapter 19 01:12:01.191 : en:Chapter 20 01:13:22.648 : en:Chapter 21 01:16:42.931 : en:Chapter 22 01:21:08.905 : en:Chapter 23 01:23:39.013 : en:Chapter 24 01:27:32.372 : en:Chapter 25 01:34:52.353 : en:Chapter 26 01:37:38.352 : en:Chapter 27

File list

Comments - 1

Is this in english dubbed? Looking for english dubbed version in 2160p.