[Komorebi] Made in Abyss [BD Dual Audio 720p x264-10bit AAC]

Category:
Date:
2018-10-24 23:04 UTC
Submitter:
Seeders:
2
Information:
#komorebi @ irc.rizon.net
Leechers:
0
File size:
5.2 GiB
Completed:
705
Info hash:
b06945d57e8d31b3d888701ff407efbeaf401613
Video source: Komorebi (JP Bluray) x264 10 bit Audio source: JP & US Blurays (matched JP bluray timing - this time with .mkv parameters instead of clipping the audio manually) -m 5 aac Subtitles: [scum] subs with karaoke and signs. This dub is IMO better than usual. 1080p coming next week... Mediainfo: ``` General Unique ID : 208106889854702544797347289518244767811 (0x9C8FEDD837564FBEC22CC42CF5862843) Complete name : [Komorebi] Made in Abyss [BD Dual Audio 720p x264-10bit AAC]\[Komorebi] Made in Abyss 01 - The City of the Great Pit (BD Dual Audio 720p) [5E469854].mkv Format : Matroska Format version : Version 4 / Version 2 File size : 324 MiB Duration : 23 min 43 s Overall bit rate : 1 911 kb/s Movie name : [Komorebi] Made in Abyss 01 - The City of the Great Pit Encoded date : UTC 2018-10-24 21:02:49 Writing application : mkvmerge v27.0.0 ('Metropolis') 64-bit Writing library : libebml v1.3.6 + libmatroska v1.4.9 Attachments : Barmeno-Roman.ttf / LT.TTF / LTFinnegan MediumItalic.ttf / maagkramp.ttf / playtime.ttf / Qlassik_TB.otf / Remains.ttf Video ID : 1 Format : AVC Format/Info : Advanced Video Codec Format profile : High 10@L5.1 Format settings : CABAC / 16 Ref Frames Format settings, CABAC : Yes Format settings, RefFrames : 16 frames Codec ID : V_MPEG4/ISO/AVC Duration : 23 min 41 s Bit rate : 1 435 kb/s Width : 1 280 pixels Height : 720 pixels Display aspect ratio : 16:9 Frame rate mode : Constant Frame rate : 23.976 (24000/1001) FPS Color space : YUV Chroma subsampling : 4:2:0 Bit depth : 10 bits Scan type : Progressive Bits/(Pixel*Frame) : 0.065 Stream size : 243 MiB (75%) Title : Episode Writing library : x264 core 157 r2935 545de2f Encoding settings : cabac=1 / ref=16 / deblock=1:1:1 / analyse=0x3:0x133 / me=umh / subme=11 / psy=1 / psy_rd=1.00:0.00 / mixed_ref=1 / me_range=32 / chroma_me=1 / trellis=2 / 8x8dct=1 / cqm=0 / deadzone=21,11 / fast_pskip=0 / chroma_qp_offset=-2 / threads=16 / lookahead_threads=2 / sliced_threads=0 / nr=0 / decimate=0 / interlaced=0 / bluray_compat=0 / constrained_intra=0 / bframes=8 / b_pyramid=2 / b_adapt=2 / b_bias=0 / direct=3 / weightb=1 / open_gop=0 / weightp=2 / keyint=250 / keyint_min=23 / scenecut=40 / intra_refresh=0 / rc_lookahead=250 / rc=crf / mbtree=1 / crf=15.0 / qcomp=0.70 / qpmin=0 / qpmax=81 / qpstep=4 / ip_ratio=1.40 / aq=2:0.85 Language : Japanese Default : Yes Forced : Yes Color range : Limited Color primaries : BT.709 Transfer characteristics : BT.709 Matrix coefficients : BT.709 Audio #1 ID : 2 Format : AAC Format/Info : Advanced Audio Codec Format profile : LC Codec ID : A_AAC-2 Duration : 23 min 41 s Bit rate : 256 kb/s Channel(s) : 2 channels Channel positions : Front: L R Sampling rate : 48.0 kHz Frame rate : 46.875 FPS (1024 SPF) Compression mode : Lossy Delay relative to video : 21 ms Stream size : 43.4 MiB (13%) Title : Japanese Audio Language : Japanese Default : Yes Forced : Yes Audio #2 ID : 3 Format : AAC Format/Info : Advanced Audio Codec Format profile : LC Codec ID : A_AAC-2 Duration : 23 min 43 s Bit rate : 216 kb/s Channel(s) : 2 channels Channel positions : Front: L R Sampling rate : 48.0 kHz Frame rate : 46.875 FPS (1024 SPF) Compression mode : Lossy Delay relative to video : 144 ms Stream size : 36.6 MiB (11%) Title : English Audio Language : English Default : No Forced : No Text #1 ID : 4 Format : ASS Codec ID : S_TEXT/ASS Codec ID/Info : Advanced Sub Station Alpha Duration : 23 min 36 s Bit rate : 108 b/s Count of elements : 351 Compression mode : Lossless Stream size : 18.8 KiB (0%) Title : English Subtitles [scum] Language : English Default : Yes Forced : Yes Text #2 ID : 5 Format : ASS Codec ID : S_TEXT/ASS Codec ID/Info : Advanced Sub Station Alpha Duration : 15 min 22 s Bit rate : 15 b/s Count of elements : 22 Compression mode : Lossless Stream size : 1.72 KiB (0%) Title : Signs & Songs [scum] Language : English Default : No Forced : No Menu 00:00:00.033 : :Intro 00:08:17.930 : :Part A 00:13:28.910 : :Part B 00:22:00.090 : :"Deep in Abyss" by Riko (CV:Miyu Tomita) and Regu (CV: Mariya Ise) (Ending) 00:23:29.880 : :Preview ```

File list

  • [Komorebi] Made in Abyss [BD Dual Audio 720p x264-10bit AAC]
    • [Komorebi] Made in Abyss 01 - The City of the Great Pit (BD Dual Audio 720p) [5E469854].mkv (324.3 MiB)
    • [Komorebi] Made in Abyss 02 - Resurrection Festival (BD Dual Audio 720p) [93E1C17B].mkv (444.4 MiB)
    • [Komorebi] Made in Abyss 03 - Departure (BD Dual Audio 720p) [FD6F92F3].mkv (325.2 MiB)
    • [Komorebi] Made in Abyss 04 - The Edge of the Abyss (BD Dual Audio 720p) [5A83A8F3].mkv (432.0 MiB)
    • [Komorebi] Made in Abyss 05 - Incinerator (BD Dual Audio 720p) [5017039D].mkv (420.4 MiB)
    • [Komorebi] Made in Abyss 06 - Seeker Camp (BD Dual Audio 720p) [74ECD397].mkv (350.6 MiB)
    • [Komorebi] Made in Abyss 07 - The Unmovable Sovereign (BD Dual Audio 720p) [6966EDFC].mkv (355.9 MiB)
    • [Komorebi] Made in Abyss 08 - Survival Training (BD Dual Audio 720p) [14BB03B4].mkv (377.1 MiB)
    • [Komorebi] Made in Abyss 09 - The Great Fault (BD Dual Audio 720p) [C2C5A79D].mkv (438.1 MiB)
    • [Komorebi] Made in Abyss 10 - Poison and the Curse (BD Dual Audio 720p) [AA07EA24].mkv (384.2 MiB)
    • [Komorebi] Made in Abyss 11 - Nanachi (BD Dual Audio 720p) [AD71E917].mkv (373.2 MiB)
    • [Komorebi] Made in Abyss 12 - The True Nature of the Curse (BD Dual Audio 720p) [601C9D2A].mkv (409.4 MiB)
    • [Komorebi] Made in Abyss 13 - The Challengers (BD Dual Audio 720p) [B0E59FEE].mkv (667.2 MiB)
is this worth watching?
Thanks, I love this show. It is pretty good!
@Maxine Hell yeah!
>This dub is IMO better than usual. The shitty lunch I ate at work yesterday was slightly less shitty than the ones I had last week, doesn't mean it was actually good.

komorebi-group (uploader)

User
@type17_RAIDEN Hey, the minute an anime gets an amazing dub, let me know. I think it's good enough that it'll get more people watching the show and that's great in general.
Thanks
Dude-there's no excuse for using hi10 L5.1 h.264 encoding with 16 ref frames in this day and age. Either use HEVC or fewer ref frames. AAC audio is so gauche-at least use flac.

AXZ

User
>Dude-there’s no excuse for using hi10 L5.1 h.264 encoding with 16 ref frames in this day and age. Either use HEVC or fewer ref frames. AAC audio is so gauche-at least use flac. Good comment
> Either use HEVC or fewer ref frames. I, too, enjoy worse encodes
>condoning HEVC >condoning FLAC How are those placebos working out for you, zrdb?
The edge in here. Sharp.
I "rolled my own" using the Beatrice raws and the english dts audio from another release so I'm happy.
Are you going to upload a 1080p encode?
You want me to upload mine? The japanese audio is gone, though-english only.

komorebi-group (uploader)

User
I can do a 1080 in a couple of days maybe, sorry been really busy.
This is a solid encode. I greatly appreciate ACC audio for Jap & Eng, along with sign/song subs for the dub. Thanks a ton! <3