[Pixel] Gekijouban Mahou Shoujo Madoka Magica Movie 3 Rebellion [1080p][BD][HEVC][10 bit][Dual Audio][Opus]

Category:
Date:
2018-10-22 17:22 UTC
Submitter:
Seeders:
4
Information:
Leechers:
0
File size:
3.8 GiB
Completed:
2200
Info hash:
d13d7b2834f5b083dd61be64cf12bd7c154a233b
Well... uh... that was dark. Throw money at the devs if you enjoy this creepy stuff. tf is wrong with us? ---------------- My encoding philosophy: I'm encoding my Blu-Rays at what I consider to be placebo audio and visual quality to the raws. If I cant see a difference on my obnoxious setup, I doubt you will be able to on yours too ;) If you have issues at playback try update your player. I know that the latest VLC (win/droid/mac/linux) and MPC (K-lite Mega Codec Pack for windows) work ---------------- No filters. Raw sauce (JPN BD). No ketchup. Just sauce. Saucy. All audio normalized to 89 dB at 24 bit. 720p ver is resized|sharpened by means of Spline36. ---------------- Screenshots here: https://imgur.com/a/hdxBoOa ![alt text](https://i.imgur.com/van0erY.jpg "Screenshot") ![alt text](https://i.imgur.com/0j6j43T.jpg "Screenshot") ![alt text](https://i.imgur.com/5VJekev.jpg "Screenshot") ---------------- 1080p Audio 1: Japanese 5.1 Opus (24bit) 320kbps Audio 2: English 5.1 Opus (24bit) 320kbps Audio 3: Japanese 2.0 Commentary (24bit) 128kbps Audio 4: Japanese 2.0 HOMURA 1st take (24bit) 128kbps Subs 1: [Meguca] Subs 2: Signs/OP/ED [Meguca] Subs 3: [Coalgirls] 720p Audio 1: Japanese 5.1 Opus (24bit) 160kbps Audio 2: English 5.1 Opus (24bit) 160kbps Subs 1: [Meguca] Subs 2: Signs/OP/ED [Meguca] Subs 3: [Coalgirls] ---------------- Here's some stats: 1080p x265 [info]: HEVC encoder version 2.7+20-3440a56acc78 x265 [info]: frame I: 2626, Avg QP:17.63 kb/s: 29273.58 x265 [info]: frame P: 50958, Avg QP:20.82 kb/s: 7058.61 x265 [info]: frame B: 114200, Avg QP:27.48 kb/s: 1643.62 x265 [info]: Weighted P-Frames: Y:3.5% UV:2.5% x265 [info]: consecutive B-frames: 23.1% 12.5% 12.7% 31.4% 20.2% 3720.66 kb/s, Avg QP:25.30 720p x265 [info]: HEVC encoder version 2.7+20-3440a56acc78 x265 [info]: frame I: 2589, Avg QP:20.25 kb/s: 13247.35 x265 [info]: frame P: 48845, Avg QP:23.94 kb/s: 3108.81 x265 [info]: frame B: 116350, Avg QP:29.93 kb/s: 689.83 x265 [info]: Weighted P-Frames: Y:4.0% UV:3.0% x265 [info]: consecutive B-frames: 20.1% 11.4% 12.1% 35.1% 21.3% 1587.81 kb/s, Avg QP:28.03 Opus 1.2.1 <https://opus-codec.org> -> ffmpeg-20180414-aedbf16-win64-static <http://ffmpeg.zeranoe.com/builds/> Output #0, opus, to 'jpn main 6ch.opus': Metadata: encoder : Lavf58.11.101 Stream #0:0: Audio: opus (libopus), 48000 Hz, 5.1, flt (24 bit), 320 kb/s Metadata: encoder : Lavc58.17.100 libopus size= 269997kB time=01:56:38.03 bitrate= 316.1kbits/s speed=43.3x video:0kB audio:268589kB subtitle:0kB other streams:0kB global headers:0kB muxing overhead: 0.524172% Output #0, opus, to 'jpn HOMURA 1st take ver 2ch.opus': Metadata: encoder : Lavf58.11.101 Stream #0:0: Audio: opus (libopus), 48000 Hz, stereo, flt (24 bit), 192 kb/s Metadata: encoder : Lavc58.17.100 libopus size= 161672kB time=01:56:38.03 bitrate= 189.3kbits/s speed=98.8x video:0kB audio:160743kB subtitle:0kB other streams:0kB global headers:0kB muxing overhead: 0.577955% Output #0, opus, to 'jpn comm 2ch.opus': Metadata: encoder : Lavf58.11.101 Stream #0:0: Audio: opus (libopus), 48000 Hz, stereo, flt (24 bit), 128 kb/s Metadata: encoder : Lavc58.17.100 libopus size= 102758kB time=01:56:38.03 bitrate= 120.3kbits/s speed= 106x video:0kB audio:101959kB subtitle:0kB other streams:0kB global headers:0kB muxing overhead: 0.783751% Output #0, opus, to 'Eng 6ch.opus': Metadata: encoder : Lavf58.17.100 Stream #0:0: Audio: opus (libopus), 48000 Hz, 5.1, flt (24 bit), 320 kb/s Metadata: encoder : Lavc58.20.103 libopus size= 285345kB time=01:56:30.69 bitrate= 334.4kbits/s speed=42.7x video:0kB audio:283879kB subtitle:0kB other streams:0kB global headers:0kB muxing overhead: 0.516681% Output #0, opus, to 'jpn main audio 6ch160.opus': Metadata: encoder : Lavf58.17.100 Stream #0:0: Audio: opus (libopus), 48000 Hz, 5.1, flt, 160 kb/s Metadata: encoder : Lavc58.20.103 libopus size= 136184kB time=01:56:38.02 bitrate= 159.4kbits/s speed=34.8x video:0kB audio:135304kB subtitle:0kB other streams:0kB global headers:0kB muxing overhead: 0.650980% Output #0, opus, to 'Eng 6ch160.opus': Metadata: encoder : Lavf58.17.100 Stream #0:0: Audio: opus (libopus), 48000 Hz, 5.1, flt, 160 kb/s Metadata: encoder : Lavc58.20.103 libopus size= 145139kB time=01:56:30.70 bitrate= 170.1kbits/s speed=32.9x video:0kB audio:144246kB subtitle:0kB other streams:0kB global headers:0kB muxing overhead: 0.619168%

File list

  • [Pixel] Puella Magi Madoka Magica - Part III - Rebellion[1080p][BD][HEVC][10 bit][Dual Audio][Opus] v2.mkv (3.8 GiB)

pg1

User
what does that "HOMURA 1st take" means on the audio?

pixel (uploader)

User
They recorded the audio twice for Homura. The 1st take was the theatrical release I believe, the main track is what came with the BD. She was a little more crazy sounding in the 1st take, but sometimes difficult to hear. https://www.youtube.com/watch?v=nJMWu9QJwnU
I have a intense crush for Akemi san. Really love her so much!!!
In the first take the audio for the post-credits scene is completely different; just Homura humming, no orchestra or anything.
The English audio is out of sync