[BDREMUX]Detective Conan Movie 22 - Zero The Enforcer/劇場版名探偵コナン ゼロの執行人

Category:
Date:
2018-10-12 01:56 UTC
Submitter:
Anonymous
Seeders:
1
Information:
No information.
Leechers:
2
File size:
19.3 GiB
Completed:
456
Info hash:
ab6b758a3f6c7db93767caebe93afbd344eadd92
General Unique ID : 101912742053502385076676214210379167380 (0x4CABAE1F32B6CE70CEAB09A29808B694) Complete name : E:\[BDREMUX]Detective Conan Movie 22 - Zero The Enforcer .mkv Format : Matroska Format version : Version 4 / Version 2 File size : 19.3 GiB Duration : 1 h 50 min Overall bit rate mode : Variable Overall bit rate : 25.1 Mb/s Encoded date : UTC 2018-10-12 01:39:58 Writing application : mkvmerge v27.0.0 ('Metropolis') 64-bit Writing library : libebml v1.3.6 + libmatroska v1.4.9 Video ID : 1 Format : AVC Format/Info : Advanced Video Codec Format profile : High@L4.1 Format settings : CABAC / 4 Ref Frames Format settings, CABAC : Yes Format settings, ReFrames : 4 frames Codec ID : V_MPEG4/ISO/AVC Duration : 1 h 50 min Bit rate mode : Variable Bit rate : 17.9 Mb/s Maximum bit rate : 38.0 Mb/s Width : 1 920 pixels Height : 1 080 pixels Display aspect ratio : 16:9 Frame rate mode : Constant Frame rate : 23.976 (24000/1001) FPS Color space : YUV Chroma subsampling : 4:2:0 Bit depth : 8 bits Scan type : Progressive Bits/(Pixel*Frame) : 0.360 Stream size : 13.8 GiB (71%) Language : Japanese Default : Yes Forced : No Color range : Limited Color primaries : BT.709 Transfer characteristics : BT.709 Matrix coefficients : BT.709 Audio #1 ID : 2 Format : TrueHD Codec ID : A_TRUEHD Duration : 1 h 50 min Bit rate mode : Variable Bit rate : 1 809 kb/s Maximum bit rate : 3 207 kb/s Channel(s) : 6 channels Channel positions : Front: L C R, Side: L R, LFE Sampling rate : 48.0 kHz Frame rate : 1 200.000 FPS (40 SPF) Compression mode : Lossless Stream size : 1.39 GiB (7%) Language : Japanese Default : Yes Forced : No Audio #2 ID : 3 Format : AC-3 Format/Info : Audio Coding 3 Codec ID : A_AC3 Duration : 1 h 50 min Bit rate mode : Constant Bit rate : 640 kb/s Channel(s) : 6 channels Channel positions : Front: L C R, Side: L R, LFE Sampling rate : 48.0 kHz Frame rate : 31.250 FPS (1536 SPF) Bit depth : 16 bits Compression mode : Lossy Stream size : 505 MiB (3%) Language : Japanese Service kind : Complete Main Default : No Forced : No Audio #3 ID : 4 Format : PCM Format settings : Little / Signed Codec ID : A_PCM/INT/LIT Duration : 1 h 50 min Bit rate mode : Constant Bit rate : 1 536 kb/s Channel(s) : 2 channels Sampling rate : 48.0 kHz Frame rate : 32.000 FPS (1500 SPF) Bit depth : 16 bits Stream size : 1.18 GiB (6%) Language : Japanese Default : No Forced : No Audio #4 ID : 5 Format : PCM Format settings : Little / Signed Codec ID : A_PCM/INT/LIT Duration : 1 h 50 min Bit rate mode : Constant Bit rate : 1 536 kb/s Channel(s) : 2 channels Sampling rate : 48.0 kHz Frame rate : 32.000 FPS (1500 SPF) Bit depth : 16 bits Stream size : 1.18 GiB (6%) Language : Japanese Default : No Forced : No Audio #5 ID : 6 Format : PCM Format settings : Little / Signed Codec ID : A_PCM/INT/LIT Duration : 1 h 50 min Bit rate mode : Constant Bit rate : 1 536 kb/s Channel(s) : 2 channels Sampling rate : 48.0 kHz Frame rate : 32.000 FPS (1500 SPF) Bit depth : 16 bits Stream size : 1.18 GiB (6%) Language : Japanese Default : No Forced : No Text ID : 7 Format : PGS Codec ID : S_HDMV/PGS Codec ID/Info : Picture based subtitle format used on BDs/HD-DVDs Duration : 1 h 49 min Bit rate : 103 kb/s Count of elements : 5548 Stream size : 81.1 MiB (0%) Language : Japanese Default : Yes Forced : No

File list

  • [BDREMUX]Detective Conan Movie 22 - Zero The Enforcer .mkv (19.3 GiB)
If anyone has the subtitle in japanese(.srt extension) plz share