JoJo's Bizarre Adventure - Golden Wind - 01 (1080p x265 10bit FurkaN)

Category:
Date:
2018-10-11 19:24 UTC
Submitter:
Seeders:
0
Information:
No information.
Leechers:
2
File size:
615.1 MiB
Completed:
85
Info hash:
fd59c39c82d464cbf7bfd821bd75f0b592a4eafe
General Format : Matroska Format version : Version 2 File size : 615 MiB Duration : 23 min 40 s Overall bit rate : 3 633 kb/s Encoded date : UTC 2018-10-11 19:19:09 / UTC 2018-10-11T01:56:57Z Writing application : mkvmerge v26.0.0 ('In The Game') 64-bit Writing library : libebml v1.3.6 + libmatroska v1.4.9 / Lavf57.7.2 Video ID : 1 Format : HEVC Format/Info : High Efficiency Video Coding Format profile : Main 10@L4@Main Codec ID : V_MPEGH/ISO/HEVC Duration : 23 min 40 s Bit rate : 3 501 kb/s Width : 1 920 pixels Height : 1 080 pixels Display aspect ratio : 16:9 Frame rate mode : Constant Frame rate : 23.976 (24000/1001) FPS Color space : YUV Chroma subsampling : 4:2:0 Bit depth : 10 bits Bits/(Pixel*Frame) : 0.070 Stream size : 593 MiB (96%) Writing library : x265 2.6:[Windows][GCC 7.3.0][64 bit] 10bit Audio ID : 2 Format : AAC LC Format/Info : Advanced Audio Codec Low Complexity Codec ID : A_AAC-2 Duration : 23 min 40 s Bit rate : 128 kb/s Channel(s) : 2 channels Channel layout : L R Sampling rate : 48.0 kHz Frame rate : 46.875 FPS (1024 SPF) Compression mode : Lossy Delay relative to video : 21 ms Stream size : 21.7 MiB (4%) Title : Stereo Language : Japanese Default : Yes Forced : No Text #1 ID : 3 Format : UTF-8 Codec ID : S_TEXT/UTF8 Codec ID/Info : UTF-8 Plain Text Duration : 23 min 30 s Bit rate : 81 b/s Count of elements : 434 Stream size : 14.1 KiB (0%) Language : English Default : No Forced : No Text #2 ID : 4 Format : ASS Codec ID : S_TEXT/ASS Codec ID/Info : Advanced Sub Station Alpha Duration : 23 min 22 s Bit rate : 128 b/s Count of elements : 433 Compression mode : Lossless Stream size : 22.0 KiB (0%) Language : Turkish Default : No Forced : No

File list

  • JoJo's Bizarre Adventure - Golden Wind - 01 (1082p x265 10bit FurkaN).mkv (615.1 MiB)

Comments - 0