[NSBC] Chugakusei Nikki E01 [WEBDL] [720p]

Category:
Date:
2018-10-11 02:28 UTC
Submitter:
Seeders:
2
Information:
TlNCQy50bw==
Leechers:
0
File size:
639.4 MiB
Completed:
511
Info hash:
caa303bfaa44b24c76043f2d956da91f850c314f
![POSTER](http://img.topddl.net/images/d12de4ccc00456051e2cf158fcee49bf.jpg "") ``` General Format : MPEG-4 Format profile : Base Media Codec ID : isom File size : 639 MiB Duration : 56mn 59s Overall bit rate : 1 569 Kbps Writing application : Lavf57.83.100 Video ID : 1 Format : AVC Format/Info : Advanced Video Codec Format profile : High@L4.0 Format settings, CABAC : Yes Format settings, ReFrames : 8 frames Codec ID : avc1 Codec ID/Info : Advanced Video Coding Duration : 56mn 59s Bit rate : 1 431 Kbps Width : 1 280 pixels Height : 720 pixels Display aspect ratio : 16:9 Frame rate mode : Constant Frame rate : 30.000 fps Color space : YUV Chroma subsampling : 4:2:0 Bit depth : 8 bits Scan type : Progressive Bits/(Pixel*Frame) : 0.052 Stream size : 583 MiB (91%) Writing library : x264 core 148 r2795 aaa9aa8 Encoding settings : cabac=1 / ref=8 / deblock=1:0:0 / analyse=0x3:0x133 / me=umh / subme=9 / psy=1 / psy_rd=1.00:0.00 / mixed_ref=1 / me_range=16 / chroma_me=1 / trellis=2 / 8x8dct=1 / cqm=0 / deadzone=21,11 / fast_pskip=1 / chroma_qp_offset=-2 / threads=12 / lookahead_threads=1 / sliced_threads=0 / nr=0 / decimate=1 / interlaced=0 / bluray_compat=0 / constrained_intra=0 / bframes=3 / b_pyramid=2 / b_adapt=2 / b_bias=0 / direct=3 / weightb=1 / open_gop=0 / weightp=2 / keyint=250 / keyint_min=25 / scenecut=40 / intra_refresh=0 / rc_lookahead=60 / rc=crf / mbtree=1 / crf=20.0 / qcomp=0.60 / qpmin=0 / qpmax=69 / qpstep=4 / ip_ratio=1.40 / aq=1:1.00 Audio ID : 2 Format : AAC Format/Info : Advanced Audio Codec Format profile : LC Codec ID : 40 Duration : 56mn 59s Bit rate mode : Constant Bit rate : 129 Kbps Channel(s) : 2 channels Channel positions : Front: L R Sampling rate : 44.1 KHz Compression mode : Lossy Stream size : 52.5 MiB (8%) ```

File list

  • [NSBC] Chugakusei Nikki E01 [WEBDL] [720p].mp4 (639.4 MiB)

Comments - 0