[Aparviel] DARLING in the FRANXX Vol.6 (w/ SP1) [1080p BDRemux]

Category:
Date:
2018-10-09 00:40 UTC
Submitter:
Seeders:
1
Information:
Leechers:
0
File size:
28.8 GiB
Completed:
73
Info hash:
c874ea3d98149b0c35dd567f9c3f53f2fd13b67b
### 6th Blu-ray volume of DARLING in the FRANXX #### ANZX-14451 --- ##### All episodes have second audio track with exclusive commentary ##### Includes #1 special - Playback Special Program --- ![alt text](https://i.imgur.com/aLjFvsq.jpg "") --- ### Info ``` General Complete name : D:\DARLING in the FRANXX Vol.6 [1080p BDRemux]\DARLING in the FRANXX - 16 [1080p BDRemux].mkv Format : Matroska Format version : Version 4 / Version 2 File size : 7.12 GiB Duration : 24 min 2 s Overall bit rate mode : Variable Overall bit rate : 42.4 Mb/s Movie name : DARLING in the FRANXX Vol.6 Writing application : mkvmerge v25.0.0 ('Prog Noir') 64-bit Writing library : libebml v1.3.6 + libmatroska v1.4.9 Video ID : 1 Codec ID : V_MPEG4/ISO/AVC Duration : 24 min 2 s Bit rate mode : Variable Bit rate : 37.8 Mb/s Maximum bit rate : 40.0 Mb/s Width : 1 920 pixels Height : 1 080 pixels Display aspect ratio : 16:9 Frame rate mode : Constant Frame rate : 23.976 (24000/1001) FPS Color space : YUV Chroma subsampling : 4:2:0 Bit depth : 8 bits Scan type : Progressive Bits/(Pixel*Frame) : 0.760 Stream size : 6.34 GiB (89%) Audio #1 ID : 2 Format : PCM Codec ID : A_PCM/INT/LIT Bit rate mode : Constant Bit rate : 2 304 kb/s Channel(s) : 2 channels Sampling rate : 48.0 kHz Bit depth : 24 bits Stream size : 396 MiB (5%) Audio #2 ID : 3 Format : PCM Codec ID : A_PCM/INT/LIT Bit rate mode : Constant Bit rate : 2 304 kb/s Channel(s) : 2 channels Sampling rate : 48.0 kHz Bit depth : 24 bits Stream size : 396 MiB (5%) ```

File list

  • DARLING in the FRANXX Vol.6 [1080p BDRemux]
    • Bonus
      • DARLING in the FRANXX - Ep 16 Preview.mkv (130.7 MiB)
      • DARLING in the FRANXX - Ep 17 Preview.mkv (132.5 MiB)
      • DARLING in the FRANXX - Ep 18 Preview.mkv (132.9 MiB)
      • Darling in the FranXX Vol.6 Menu.mkv (208.5 MiB)
      • IMG_0001.png (64.6 MiB)
      • IMG_0002.png (65.7 MiB)
    • DARLING in the FRANXX - 16 [1080p BDRemux].mkv (7.1 GiB)
    • DARLING in the FRANXX - 17 [1080p BDRemux].mkv (7.1 GiB)
    • DARLING in the FRANXX - 18 [1080p BDRemux].mkv (7.1 GiB)
    • DARLING in the FRANXX - SP1 [1080p BDRemux].mkv (6.7 GiB)