[Aparviel] DARLING in the FRANXX Vol.5 [1080p BDRemux]

Category:
Date:
2018-10-09 00:33 UTC
Submitter:
Seeders:
1
Information:
Leechers:
0
File size:
21.9 GiB
Completed:
53
Info hash:
d0d9d8c8741c0c0c8271f5d507d3450f1fde9f7a
### 5th Blu-ray volume of DARLING in the FRANXX #### ANZX-14449 --- ##### All episodes have second audio track with exclusive commentary --- ![alt text](https://i.imgur.com/zxIpyrV.jpg "") --- ### Info ``` General Complete name : D:\DARLING in the FRANXX Vol.5 [1080p BDRemux]\DARLING in the FRANXX - 13 [1080p BDRemux].mkv Format : Matroska Format version : Version 4 / Version 2 File size : 7.01 GiB Duration : 24 min 2 s Overall bit rate mode : Variable Overall bit rate : 41.7 Mb/s Movie name : DARLING in the FRANXX Vol.5 Writing application : mkvmerge v25.0.0 ('Prog Noir') 64-bit Writing library : libebml v1.3.6 + libmatroska v1.4.9 Video ID : 1 Codec ID : V_MPEG4/ISO/AVC Duration : 24 min 2 s Bit rate mode : Variable Bit rate : 37.1 Mb/s Maximum bit rate : 40.0 Mb/s Width : 1 920 pixels Height : 1 080 pixels Display aspect ratio : 16:9 Frame rate mode : Constant Frame rate : 23.976 (24000/1001) FPS Color space : YUV Chroma subsampling : 4:2:0 Bit depth : 8 bits Scan type : Progressive Bits/(Pixel*Frame) 0.747 Stream size : 6.23 GiB (89%) Audio #1 ID : 2 Format : PCM Codec ID : A_PCM/INT/LIT Bit rate mode : Constant Bit rate : 2 304 kb/s Channel(s) : 2 channels Sampling rate : 48.0 kHz Bit depth : 24 bits Stream size : 396 MiB (6%) Audio #2 ID : 3 Format : PCM Codec ID : A_PCM/INT/LIT Bit rate mode : Constant Bit rate : 2 304 kb/s Channel(s) : 2 channels Sampling rate : 48.0 kHz Bit depth : 24 bits Stream size : 396 MiB (6%) ```

File list

  • DARLING in the FRANXX Vol.5 [1080p BDRemux]
    • Bonus
      • DARLING in the FRANXX - Ep 13 Preview.mkv (132.9 MiB)
      • DARLING in the FRANXX - Ep 14 Preview.mkv (132.3 MiB)
      • DARLING in the FRANXX - Ep 15 Preview.mkv (131.7 MiB)
      • Darling in the FranXX Vol.5 Menu.mkv (209.1 MiB)
      • IMG_0001.png (67.1 MiB)
      • IMG_0002.png (68.1 MiB)
    • DARLING in the FRANXX - 13 [1080p BDRemux].mkv (7.0 GiB)
    • DARLING in the FRANXX - 14 [1080p BDRemux].mkv (7.1 GiB)
    • DARLING in the FRANXX - 15 [1080p BDRemux].mkv (7.1 GiB)