Detective Conan - 721 - [WAVE][720p][40DD2B60].mkv

Category:
Date:
2018-10-05 23:45 UTC
Submitter:
Seeders:
1
Information:
No information.
Leechers:
0
File size:
323.7 MiB
Completed:
216
Info hash:
eff14fec2c29e3a99e75551df7067a9afb1f8882
Rushed release, felt bad for [the guy who OCR'd Hubuki's release](https://nyaa.si/view/1081412) when I have the original scripts. --- Subs: Hubuki Raw: Zero-Raws --- MediaInfo ``` General Unique ID : 318149703311914948891103362425410241345 (0xEF59676F34F9D3332798F6F6753F4341) Complete name : H:\Anime\Detective Conan\Detective Conan S23 - [716-739]\Detective Conan - 721 - [WAVE][720p][40DD2B60].mkv Format : Matroska Format version : Version 4 File size : 324 MiB Duration : 24 min 26 s Overall bit rate : 1 852 kb/s Encoded date : UTC 2018-10-05 23:37:51 Writing application : mkvmerge v25.0.0 ('Prog Noir') 64-bit Writing library : libebml v1.3.6 + libmatroska v1.4.9 Video ID : 1 Format : AVC Format/Info : Advanced Video Codec Format profile : High@L4.1 Format settings : CABAC / 9 Ref Frames Format settings, CABAC : Yes Format settings, RefFrames : 9 frames Codec ID : V_MPEG4/ISO/AVC Duration : 24 min 25 s Bit rate : 1 598 kb/s Width : 1 280 pixels Height : 720 pixels Display aspect ratio : 16:9 Frame rate mode : Constant Frame rate : 23.976 (24000/1001) FPS Color space : YUV Chroma subsampling : 4:2:0 Bit depth : 8 bits Scan type : Progressive Bits/(Pixel*Frame) : 0.072 Stream size : 279 MiB (86%) Title : [Zero-Raws] Detective Conan - 721 (YTV 1280x720 x264 AAC) Writing library : x264 core 129 r2245+729M 1a52e03 Encoding settings : cabac=1 / ref=9 / deblock=1:0:0 / analyse=0x3:0x133 / me=umh / subme=10 / psy=1 / fade_compensate=0.00 / psy_rd=1.00:0.00 / mixed_ref=1 / me_range=24 / chroma_me=1 / trellis=2 / 8x8dct=1 / cqm=0 / deadzone=21,11 / fast_pskip=1 / chroma_qp_offset=-2 / threads=12 / lookahead_threads=2 / sliced_threads=0 / nr=0 / decimate=1 / interlaced=0 / bluray_compat=0 / constrained_intra=0 / fgo=0 / bframes=8 / b_pyramid=2 / b_adapt=2 / b_bias=0 / direct=3 / weightb=1 / open_gop=0 / weightp=2 / keyint=250 / keyint_min=23 / scenecut=40 / intra_refresh=0 / rc_lookahead=60 / rc=crf / mbtree=1 / crf=18.0 / qcomp=0.60 / qpmin=0 / qpmax=69 / qpstep=4 / ip_ratio=1.40 / aq=1:1.00 Default : Yes Forced : No Color range : Limited Matrix coefficients : BT.709 Audio ID : 2 Format : AAC LC Format/Info : Advanced Audio Codec Low Complexity Codec ID : A_AAC-2 Duration : 24 min 24 s Bit rate : 253 kb/s Channel(s) : 2 channels Channel layout : L R Sampling rate : 48.0 kHz Frame rate : 46.875 FPS (1024 SPF) Compression mode : Lossy Stream size : 44.1 MiB (14%) Title : [Zero-Raws] Detective Conan - 721 (YTV 1280x720 x264 AAC) Language : Japanese Default : Yes Forced : No Text ID : 3 Format : ASS Codec ID : S_TEXT/ASS Codec ID/Info : Advanced Sub Station Alpha Duration : 24 min 25 s Bit rate : 163 b/s Count of elements : 399 Compression mode : Lossless Stream size : 29.2 KiB (0%) Title : Hubuki Language : English Default : Yes Forced : No ```

File list

  • Detective Conan - 721 - [WAVE][720p][40DD2B60].mkv (323.7 MiB)
Thanks a lot. Any more episodes you gonna make?

wave (uploader)

User
Took a break from this project, but this guy is making progress: https://nyaa.si/user/BTN
If you had the original scripts why did you not include the OP and ED translations and romaji?