[Harunoki] Love Live! μ's Live Collection (BD 1920x1080@60FPS HEVC Hi10p FLAC) (Sub español - Spanish sub)

Category:
Date:
2018-10-05 21:04 UTC
Submitter:
Seeders:
0
Information:
No information.
Leechers:
0
File size:
12.7 GiB
Completed:
72
Info hash:
62ce7ce67497d256797bf6daed2c37d1d95f2cb4
μ's Live Collection interpolado a 60FPS (Requiere un buen hardware para reproducirlo) Gracias a Anime Dream Fansub [ADF] por los subtitulos: https://nyaa.si/view/951708 y a Beatrice-Raws por el rip: https://nyaa.si/view/845081 μ's Live Collection interpolated to 60FPS (Requires good hardware to play it) Thanks to Anime Dream Fansub [ADF] for the subs: https://nyaa.si/view/951708 and Beatrice-Raws for the rip: https://nyaa.si/view/845081 Información Técnica/Technical Info: General Format : Matroska Format version : Version 4 / Version 2 File size : 12.7 GiB Duration : 1 h 28 min Overall bit rate mode : Variable Overall bit rate : 20.6 Mb/s Movie name : Love Live! μ's Live Collection Encoded date : UTC 2018-10-04 02:31:17 Writing application : mkvmerge v27.0.0 ('Metropolis') 64-bit Writing library : libebml v1.3.6 + libmatroska v1.4.9 Video ID : 1 Format : HEVC Format/Info : High Efficiency Video Coding Format profile : Main 10@L4@High Codec ID : V_MPEGH/ISO/HEVC Duration : 1 h 28 min Bit rate : 14.8 Mb/s Width : 1 920 pixels Height : 1 080 pixels Display aspect ratio : 16:9 Frame rate mode : Constant Frame rate : 59.940 (60000/1001) FPS Color space : YUV Chroma subsampling : 4:2:0 Bit depth : 10 bits Bits/(Pixel*Frame) : 0.119 Stream size : 9.15 GiB (72%) Audio #1 ID : 2 Format : FLAC Format/Info : Free Lossless Audio Codec Codec ID : A_FLAC Duration : 1 h 28 min Bit rate mode : Variable Bit rate : 1 498 kb/s Channel(s) : 2 channels Channel positions : Front: L R Sampling rate : 48.0 kHz Frame rate : 11.719 FPS (4096 SPF) Bit depth : 24 bits Stream size : 946 MiB (7%) Title : Stereo Writing library : libFLAC 1.3.1 (UTC 2014-11-25) Language : Japanese Audio #2 ID : 3 Format : FLAC Format/Info : Free Lossless Audio Codec Codec ID : A_FLAC Duration : 1 h 28 min Bit rate mode : Variable Bit rate : 4 178 kb/s Channel(s) : 6 channels Channel positions : Front: L C R, Side: L R, LFE Sampling rate : 48.0 kHz Frame rate : 11.719 FPS (4096 SPF) Bit depth : 24 bits Stream size : 2.58 GiB (20%) Title : Surround 5.1 Writing library : libFLAC 1.3.1 (UTC 2014-11-25) Language : Japanese

File list

  • [Harunoki] Love Live! μ's Live Collection (BD 1920x1080 60fps HEVC Hi10p FLAC) (Sub español - Spanish sub).mkv (12.7 GiB)
Gracias, pero ahora la gran pregunta: ¿por qué @60fps? ¿Hay alguna diferencia respecto a los @23.976 de siempre?

Harunoki__48 (uploader)

User
Si hay diferencia, no solo esta renderizado a 59.94fps, el video se ve como si estuviese a tal fps, mas fluido, mediante interpolacion de los frames, es similar a ver la diferencia entre un juego que corre a 60 y 30fps respectivamente, esta a x5/2 mas cuadros que 23.976, no a todo las personas les gusta como queda, pero personalmente es de mi agrado asi

Harunoki__48 (uploader)

User
Because I like it xd
someone pls seed raw version thankyou :<