Detective Conan - 158 [WAVE][EB24D762].mkv

Category:
Date:
2018-09-30 20:42 UTC
Submitter:
Seeders:
2
Information:
No information.
Leechers:
0
File size:
293.7 MiB
Completed:
152
Info hash:
88a0a1775f61a1a03b0bee71355cddd6d0198c1f
Season 6 is now fully softsubbed 🎉 --- Subs: Neg Raw: Reghost-Fabre --- MediaInfo ``` General Unique ID : 247918063955648828673175920520481520931 (0xBA834845A4A24A17E2DDF0B5DF64BD23) Complete name : H:\Anime\Detective Conan\Detective Conan S06 - [135-162]\Detective Conan - 158 [WAVE][EB24D762].mkv Format : Matroska Format version : Version 4 File size : 294 MiB Duration : 24 min 27 s Overall bit rate : 1 679 kb/s Encoded date : UTC 2018-09-30 20:38:33 Writing application : mkvmerge v25.0.0 ('Prog Noir') 64-bit Writing library : libebml v1.3.6 + libmatroska v1.4.9 Attachments : OpenSans-Bold.ttf / OpenSans-BoldItalic.ttf / OpenSans-Italic.ttf / OpenSans-Regular.ttf / Syntax LT Bold.ttf / Syntax LT Italic.ttf / Syntax LT.ttf Video ID : 1 Format : AVC Format/Info : Advanced Video Codec Format profile : High 10@L4 Format settings : CABAC / 16 Ref Frames Format settings, CABAC : Yes Format settings, RefFrames : 16 frames Codec ID : V_MPEG4/ISO/AVC Duration : 24 min 27 s Bit rate : 1 479 kb/s Width : 720 pixels Height : 480 pixels Display aspect ratio : 4:3 Frame rate mode : Constant Frame rate : 23.976 (24000/1001) FPS Color space : YUV Chroma subsampling : 4:2:0 Bit depth : 10 bits Scan type : Progressive Bits/(Pixel*Frame) : 0.178 Stream size : 259 MiB (88%) Title : [720x480/4:3@10bits] [CRF de 16] Reghost-Fabre Writing library : x264 core 146 r2538 121396c Encoding settings : cabac=1 / ref=16 / deblock=1:0:0 / analyse=0x3:0x133 / me=umh / subme=10 / psy=1 / psy_rd=1.00:0.00 / mixed_ref=1 / me_range=24 / chroma_me=1 / trellis=2 / 8x8dct=1 / cqm=0 / deadzone=21,11 / fast_pskip=1 / chroma_qp_offset=-2 / threads=6 / lookahead_threads=1 / sliced_threads=0 / nr=0 / decimate=1 / interlaced=0 / bluray_compat=0 / constrained_intra=0 / bframes=8 / b_pyramid=2 / b_adapt=2 / b_bias=0 / direct=3 / weightb=1 / open_gop=0 / weightp=2 / keyint=240 / keyint_min=23 / scenecut=40 / intra_refresh=0 / rc_lookahead=60 / rc=crf / mbtree=1 / crf=16.0 / qcomp=0.60 / qpmin=0 / qpmax=81 / qpstep=4 / ip_ratio=1.40 / aq=1:1.00 Language : Japanese Default : Yes Forced : No Audio ID : 2 Format : AC-3 Format/Info : Audio Coding 3 Commercial name : Dolby Digital Codec ID : A_AC3 Duration : 24 min 27 s Bit rate mode : Constant Bit rate : 192 kb/s Channel(s) : 2 channels Channel layout : L R Sampling rate : 48.0 kHz Frame rate : 31.250 FPS (1536 SPF) Bit depth : 16 bits Compression mode : Lossy Stream size : 33.6 MiB (11%) Title : Chinmoku no Kanjosen (沈黙の環状線) [日本語] Language : Japanese Service kind : Complete Main Default : Yes Forced : No Text ID : 3 Format : ASS Codec ID : S_TEXT/ASS Codec ID/Info : Advanced Sub Station Alpha Duration : 24 min 24 s Bit rate : 127 b/s Count of elements : 391 Compression mode : Lossless Stream size : 22.7 KiB (0%) Title : Neg Language : English Default : Yes Forced : No Menu 00:00:00.000 : en:Chapter 1 00:01:34.601 : en:Chapter 2 00:12:44.668 : en:Chapter 3 00:21:24.902 : en:Chapter 4 00:23:44.236 : en:Chapter 5 ```

File list

  • Detective Conan - 158 [WAVE][EB24D762].mkv (293.7 MiB)
Thank You can you add a batch from soft subed season?

wave (uploader)

User
I'll have to check for OCR errors I missed, so you can expect a batch about a week after I upload 124-125. Season batches will only contain my releases, but I might make a torrent for the whole series softsubbed if I ever finish this project.
So you will continue with season 7 after you do 124-125?

wave (uploader)

User
The plan is to sub everything, but it's very likely I'll drop the project before that.
which programas do you use for the ocr?
wave: thank you for this, please dont drop the project, there are members in the Conan scene who try to tell on every conan torrent that what you do is bad or not good, please continue, what you do is very much appreciated! If there will be better subs then you can always do a v2. :)

wave (uploader)

User
@Apotoxin_Fansub I use SubRip. @darkfire68 Thanks. I'm not discouraged by these people, just that OCRing 400+ episodes is gonna get boring real fast.
@wave for any chance do you have episode 9 with softsub, I have a versión with soft but it give me a bad lexical cast so I can have it.

wave (uploader)

User
Get the CF&B release https://nyaa.si/view/483538