Detective Conan - 155 [WAVE][ACD04F8B].mkv

Category:
Date:
2018-09-28 15:13 UTC
Submitter:
Seeders:
3
Information:
No information.
Leechers:
0
File size:
324.9 MiB
Completed:
160
Info hash:
9fdc2e3cd2508c6aad4c6c72be657c7b53d63b1a
Subs: Neg Raw: Reghost-Fabre --- MediaInfo ``` General Unique ID : 290610926301874868591755627757758803530 (0xDAA1A0E63BDBA2AA7F9BA1436BFF6E4A) Complete name : H:\Anime\Detective Conan\Detective Conan S06 - [135-162]\Detective Conan - 155 [WAVE][ACD04F8B].mkv Format : Matroska Format version : Version 4 File size : 325 MiB Duration : 24 min 27 s Overall bit rate : 1 857 kb/s Encoded date : UTC 2018-09-28 15:06:44 Writing application : mkvmerge v25.0.0 ('Prog Noir') 64-bit Writing library : libebml v1.3.6 + libmatroska v1.4.9 Attachments : OpenSans-Bold.ttf / OpenSans-BoldItalic.ttf / OpenSans-Italic.ttf / OpenSans-Regular.ttf / Syntax LT Bold.ttf / Syntax LT Italic.ttf / Syntax LT.ttf Video ID : 1 Format : AVC Format/Info : Advanced Video Codec Format profile : High 10@L4 Format settings : CABAC / 16 Ref Frames Format settings, CABAC : Yes Format settings, RefFrames : 16 frames Codec ID : V_MPEG4/ISO/AVC Duration : 24 min 27 s Bit rate : 1 657 kb/s Width : 720 pixels Height : 480 pixels Display aspect ratio : 4:3 Frame rate mode : Constant Frame rate : 23.976 (24000/1001) FPS Color space : YUV Chroma subsampling : 4:2:0 Bit depth : 10 bits Scan type : Progressive Bits/(Pixel*Frame) : 0.200 Stream size : 290 MiB (89%) Title : [720x480/4:3@10bits] [CRF de 16] Reghost-Fabre Writing library : x264 core 146 r2538 121396c Encoding settings : cabac=1 / ref=16 / deblock=1:0:0 / analyse=0x3:0x133 / me=umh / subme=10 / psy=1 / psy_rd=1.00:0.00 / mixed_ref=1 / me_range=24 / chroma_me=1 / trellis=2 / 8x8dct=1 / cqm=0 / deadzone=21,11 / fast_pskip=1 / chroma_qp_offset=-2 / threads=6 / lookahead_threads=1 / sliced_threads=0 / nr=0 / decimate=1 / interlaced=0 / bluray_compat=0 / constrained_intra=0 / bframes=8 / b_pyramid=2 / b_adapt=2 / b_bias=0 / direct=3 / weightb=1 / open_gop=0 / weightp=2 / keyint=240 / keyint_min=23 / scenecut=40 / intra_refresh=0 / rc_lookahead=60 / rc=crf / mbtree=1 / crf=16.0 / qcomp=0.60 / qpmin=0 / qpmax=81 / qpstep=4 / ip_ratio=1.40 / aq=1:1.00 Language : Japanese Default : Yes Forced : No Audio ID : 2 Format : AC-3 Format/Info : Audio Coding 3 Commercial name : Dolby Digital Codec ID : A_AC3 Duration : 24 min 27 s Bit rate mode : Constant Bit rate : 192 kb/s Channel(s) : 2 channels Channel layout : L R Sampling rate : 48.0 kHz Frame rate : 31.250 FPS (1536 SPF) Bit depth : 16 bits Compression mode : Lossy Stream size : 33.6 MiB (10%) Title : Suichū no Kagi Misshitsu Jiken (水中の鍵密室事件) [日本語] Language : Japanese Service kind : Complete Main Default : Yes Forced : No Text ID : 3 Format : ASS Codec ID : S_TEXT/ASS Codec ID/Info : Advanced Sub Station Alpha Duration : 24 min 24 s Bit rate : 113 b/s Count of elements : 381 Compression mode : Lossless Stream size : 20.3 KiB (0%) Title : Neg Language : English Default : Yes Forced : No Menu 00:00:00.000 : en:Chapter 1 00:01:34.601 : en:Chapter 2 00:15:04.001 : en:Chapter 3 00:21:38.902 : en:Chapter 4 00:23:43.803 : en:Chapter 5 ```

File list

  • Detective Conan - 155 [WAVE][ACD04F8B].mkv (324.9 MiB)