Detective Conan - 154 [WAVE][D88C8306].mkv

Category:
Date:
2018-09-27 19:15 UTC
Submitter:
Seeders:
2
Information:
No information.
Leechers:
0
File size:
340.1 MiB
Completed:
138
Info hash:
dbe5eea127fd46957287d65b8a1837ad23d3e5d1
Subs: Neg Raw: Reghost-Fabre --- MediaInfo ``` General Unique ID : 33300841826165390090612372365023267724 (0x190D8243A44AF8DC833E2D077D624B8C) Complete name : H:\Anime\Detective Conan\Detective Conan S06 - [135-162]\Detective Conan - 154 [WAVE][D88C8306].mkv Format : Matroska Format version : Version 4 File size : 340 MiB Duration : 24 min 27 s Overall bit rate : 1 944 kb/s Encoded date : UTC 2018-09-27 19:10:42 Writing application : mkvmerge v25.0.0 ('Prog Noir') 64-bit Writing library : libebml v1.3.6 + libmatroska v1.4.9 Attachments : OpenSans-Bold.ttf / OpenSans-BoldItalic.ttf / OpenSans-Italic.ttf / OpenSans-Regular.ttf / Syntax LT Bold.ttf / Syntax LT Italic.ttf / Syntax LT.ttf Video ID : 1 Format : AVC Format/Info : Advanced Video Codec Format profile : High 10@L4 Format settings : CABAC / 16 Ref Frames Format settings, CABAC : Yes Format settings, RefFrames : 16 frames Codec ID : V_MPEG4/ISO/AVC Duration : 24 min 27 s Bit rate : 1 744 kb/s Width : 720 pixels Height : 480 pixels Display aspect ratio : 4:3 Frame rate mode : Constant Frame rate : 23.976 (24000/1001) FPS Color space : YUV Chroma subsampling : 4:2:0 Bit depth : 10 bits Scan type : Progressive Bits/(Pixel*Frame) : 0.210 Stream size : 305 MiB (90%) Title : [720x480/4:3@10bits] [CRF de 16] Writing library : x264 core 146 r2538 121396c Encoding settings : cabac=1 / ref=16 / deblock=1:0:0 / analyse=0x3:0x133 / me=umh / subme=10 / psy=1 / psy_rd=1.00:0.00 / mixed_ref=1 / me_range=24 / chroma_me=1 / trellis=2 / 8x8dct=1 / cqm=0 / deadzone=21,11 / fast_pskip=1 / chroma_qp_offset=-2 / threads=6 / lookahead_threads=1 / sliced_threads=0 / nr=0 / decimate=1 / interlaced=0 / bluray_compat=0 / constrained_intra=0 / bframes=8 / b_pyramid=2 / b_adapt=2 / b_bias=0 / direct=3 / weightb=1 / open_gop=0 / weightp=2 / keyint=240 / keyint_min=23 / scenecut=40 / intra_refresh=0 / rc_lookahead=60 / rc=crf / mbtree=1 / crf=16.0 / qcomp=0.60 / qpmin=0 / qpmax=81 / qpstep=4 / ip_ratio=1.40 / aq=1:1.00 Language : Japanese Default : Yes Forced : No Audio ID : 2 Format : AC-3 Format/Info : Audio Coding 3 Commercial name : Dolby Digital Codec ID : A_AC3 Duration : 24 min 27 s Bit rate mode : Constant Bit rate : 192 kb/s Channel(s) : 2 channels Channel layout : L R Sampling rate : 48.0 kHz Frame rate : 31.250 FPS (1536 SPF) Bit depth : 16 bits Compression mode : Lossy Stream size : 33.6 MiB (10%) Title : Sonoko no Abunai Natsumonogatari (Kōhen) (園子のアブない夏物語(後編)) [日本語] Language : Japanese Service kind : Complete Main Default : Yes Forced : No Text ID : 3 Format : ASS Codec ID : S_TEXT/ASS Codec ID/Info : Advanced Sub Station Alpha Duration : 24 min 24 s Bit rate : 121 b/s Count of elements : 383 Compression mode : Lossless Stream size : 21.8 KiB (0%) Title : Neg Language : English Default : Yes Forced : No Menu 00:00:00.000 : en:Chapter 1 00:01:34.601 : en:Chapter 2 00:09:24.402 : en:Chapter 3 00:21:40.936 : en:Chapter 4 00:23:43.804 : en:Chapter 5 ```

File list

  • Detective Conan - 154 [WAVE][D88C8306].mkv (340.1 MiB)