[Neutrinome] Tsuki Ga Kirei (S1+OAV) - VOSTFR [1080p BDRip FLAC] + DDL

Category:
Date:
2018-09-16 13:14 UTC
Submitter:
Seeders:
2
Information:
Leechers:
0
File size:
19.2 GiB
Completed:
85
Info hash:
56bd97ec46b6680010c08f044ea13d0023c8416a
Tsuki ga Kirei ====== *** ![alt text](https://m.media-amazon.com/images/M/MV5BMTQ4YzMyMzctNzUyYS00N2RjLWFjNGEtMmVkNTdhYWU1MmFhXkEyXkFqcGdeQXVyMzgxODM4NjM@._V1_.jpg) *** * **Date de sortie** : 2017 * **Durée** : 12*24min + 24min * **Licencié** : Crunchyroll * **Vidéo** : Beatrice-Raws * **Sous-titre** : Crunchyroll * **Sous-titre OAV** : Kodoku no Kawarini [KnK] * **Lien DDL** : [Uptobox](https://uptobox.com/f4nuv8jry1m5) *** **NFO** General Unique ID : 67886110395791564259750575632735565950 (0x331263A7FAE9537DB80144EA6FF0787E) Format : Matroska Format version : Version 4 / Version 2 File size : 1.52 GiB Duration : 24 min 22 s Overall bit rate mode : Variable Overall bit rate : 8 907 kb/s Encoded date : UTC 2018-08-29 17:50:55 Writing application : mkvmerge v26.0.0 ('In The Game') 64-bit Writing library : libebml v1.3.6 + libmatroska v1.4.9 Video ID : 1 Format : AVC Format/Info : Advanced Video Codec Format profile : High 10@L5 Format settings, CABAC : Yes Format settings, RefFrames : 4 frames Codec ID : V_MPEG4/ISO/AVC Duration : 24 min 22 s Bit rate : 7 567 kb/s Width : 1 920 pixels Height : 1 080 pixels Display aspect ratio : 16:9 Frame rate mode : Constant Frame rate : 23.976 (24000/1001) FPS Color space : YUV Chroma subsampling : 4:2:0 Bit depth : 10 bits Scan type : Progressive Bits/(Pixel*Frame) : 0.152 Stream size : 1.29 GiB (85%) Title : BDRip by DJATOM [Beatrice-Raws] Writing library : x264 core 152 r2851M ba24899 (DJATOM's build) Encoding settings : cabac=1 / ref=4 / deblock=1:1:-1 / analyse=0x3:0x113 / me=umh / subme=9 / psy=1 / psy_rd=1.00:0.00 / mixed_ref=1 / me_range=32 / chroma_me=1 / trellis=2 / 8x8dct=1 / cqm=0 / deadzone=21,11 / fast_pskip=1 / chroma_qp_offset=-2 / threads=34 / lookahead_threads=5 / sliced_threads=0 / nr=0 / decimate=1 / interlaced=0 / bluray_compat=0 / constrained_intra=0 / bframes=9 / b_pyramid=2 / b_adapt=2 / b_bias=0 / direct=1 / weightb=1 / open_gop=0 / weightp=2 / keyint=250 / keyint_min=23 / scenecut=40 / intra_refresh=0 / rc=crf / mbtree=0 / crf=15.0000 / qcomp=0.72 / qpmin=0 / qpmax=81 / qpstep=4 / ip_ratio=1.40 / pb_ratio=1.30 / aq=1:0.85 Default : Yes Forced : No Color range : Limited Color primaries : BT.709 Transfer characteristics : BT.709 Matrix coefficients : BT.709 Audio ID : 2 Format : FLAC Format/Info : Free Lossless Audio Codec Codec ID : A_FLAC Duration : 24 min 22 s Bit rate mode : Variable Bit rate : 1 338 kb/s Channel(s) : 2 channels Channel positions : Front: L R Sampling rate : 48.0 kHz Frame rate : 11.719 FPS (4096 SPF) Bit depth : 24 bits Stream size : 233 MiB (15%) Title : DTSMA->FLAC Writing library : libFLAC 1.3.2 (UTC 2017-01-01) Language : Japanese Default : Yes Forced : No Text ID : 3 Format : ASS Codec ID : S_TEXT/ASS Codec ID/Info : Advanced Sub Station Alpha Duration : 21 min 45 s Bit rate : 100 b/s Count of elements : 248 Compression mode : Lossless Stream size : 16.0 KiB (0%) Title : Français Language : French Default : Yes Forced : No Menu 00:00:00.000 : en:Avant 00:01:48.024 : en:OP 00:03:17.989 : en:Part A 00:12:58.068 : en:Part B 00:22:51.078 : en:ED

File list

  • [Neutrinome] Tsuki Ga Kirei - VOSTFR [1080p BDRip FLAC]
    • EXTRA
      • NC
        • [Beatrice-Raws] Tsuki ga Kirei (Creditless ED) [BDRip 1920x1080 x264 FLAC].mkv (268.4 MiB)
        • [Beatrice-Raws] Tsuki ga Kirei (Creditless OP) [BDRip 1920x1080 x264 FLAC].mkv (130.0 MiB)
      • Scans
        • img001.png (35.2 MiB)
        • img002.png (34.0 MiB)
        • img003.png (3.0 MiB)
        • img004.png (53.5 MiB)
        • img005.png (49.8 MiB)
        • img006.png (35.7 MiB)
        • img007.png (39.2 MiB)
        • img008.png (38.2 MiB)
        • img009.png (38.3 MiB)
        • img010.png (35.8 MiB)
        • img011.png (25.0 MiB)
        • img012.png (20.0 MiB)
        • img013.png (12.4 MiB)
        • img014.png (13.5 MiB)
        • img015.png (15.2 MiB)
        • img016.png (16.2 MiB)
    • [Neutrinome] Tsuki ga Kirei (Ex. Short Episodes) - VOSTFR [1080p BDRip FLAC].mkv (799.6 MiB)
    • [Neutrinome] Tsuki ga Kirei - 01 - VOSTFR [1080p BDRip FLAC].mkv (1.5 GiB)
    • [Neutrinome] Tsuki ga Kirei - 02 - VOSTFR [1080p BDRip FLAC].mkv (1.6 GiB)
    • [Neutrinome] Tsuki ga Kirei - 03 - VOSTFR [1080p BDRip FLAC].mkv (1.5 GiB)
    • [Neutrinome] Tsuki ga Kirei - 04 - VOSTFR [1080p BDRip FLAC].mkv (1.5 GiB)
    • [Neutrinome] Tsuki ga Kirei - 05 - VOSTFR [1080p BDRip FLAC].mkv (1.4 GiB)
    • [Neutrinome] Tsuki ga Kirei - 06 - VOSTFR [1080p BDRip FLAC].mkv (1.4 GiB)
    • [Neutrinome] Tsuki ga Kirei - 07 - VOSTFR [1080p BDRip FLAC].mkv (1.6 GiB)
    • [Neutrinome] Tsuki ga Kirei - 08 - VOSTFR [1080p BDRip FLAC].mkv (1.5 GiB)
    • [Neutrinome] Tsuki ga Kirei - 09 - VOSTFR [1080p BDRip FLAC].mkv (1.4 GiB)
    • [Neutrinome] Tsuki ga Kirei - 10 - VOSTFR [1080p BDRip FLAC].mkv (1.5 GiB)
    • [Neutrinome] Tsuki ga Kirei - 11 - VOSTFR [1080p BDRip FLAC].mkv (1.4 GiB)
    • [Neutrinome] Tsuki ga Kirei - 12 - VOSTFR [1080p BDRip FLAC].mkv (1.3 GiB)