[Neutrinome] Tsurezure Children - VOSTFR [1080p BDRip TrueHD] + DDL

Category:
Date:
2018-09-16 13:07 UTC
Submitter:
Seeders:
1
Information:
Leechers:
0
File size:
8.0 GiB
Completed:
190
Info hash:
9767a3df87beff25ae27c34f183d7cc961cbf65d
Tsurezure Children ====== *** ![alt text](https://www.manga-news.com/public/images/dvd/Tsuredure-Children-anime.jpg) *** * **Date de sortie** : 2017 * **Durée** : 12*13min * **Licencié** : Crunchyroll * **Vidéo** : UCCUSS * **Sous-titre** : Crunchyroll * **Lien DDL** : [Uptobox](https://uptobox.com/j4y8i5pwm9sk) *** **NFO** General Unique ID : 128898207000623130689588901151145096811 (0x60F8E444181266BE134422433236766B) Format : Matroska Format version : Version 4 / Version 2 File size : 790 MiB Duration : 12 min 32 s Overall bit rate mode : Variable Overall bit rate : 8 817 kb/s Encoded date : UTC 2018-08-29 17:29:25 Writing application : mkvmerge v26.0.0 ('In The Game') 64-bit Writing library : libebml v1.3.6 + libmatroska v1.4.9 Video ID : 1 Format : AVC Format/Info : Advanced Video Codec Format profile : High@L4.1 Format settings, CABAC : Yes Format settings, RefFrames : 4 frames Codec ID : V_MPEG4/ISO/AVC Duration : 12 min 32 s Bit rate : 7 975 kb/s Width : 1 920 pixels Height : 1 080 pixels Display aspect ratio : 16:9 Frame rate mode : Constant Frame rate : 23.976 (24000/1001) FPS Color space : YUV Chroma subsampling : 4:2:0 Bit depth : 8 bits Scan type : Progressive Bits/(Pixel*Frame) : 0.160 Stream size : 715 MiB (90%) Title : [UCCUSS] Writing library : x264 core 155 r2901 7d0ff22 Encoding settings : cabac=1 / ref=4 / deblock=1:-1:-1 / analyse=0x3:0x133 / me=umh / subme=9 / psy=1 / psy_rd=0.85:0.00 / mixed_ref=1 / me_range=32 / chroma_me=1 / trellis=2 / 8x8dct=1 / cqm=0 / deadzone=21,11 / fast_pskip=1 / chroma_qp_offset=-4 / threads=4 / lookahead_threads=1 / sliced_threads=0 / nr=0 / decimate=0 / interlaced=0 / bluray_compat=0 / constrained_intra=0 / bframes=5 / b_pyramid=2 / b_adapt=2 / b_bias=0 / direct=2 / weightb=1 / open_gop=0 / weightp=2 / keyint=230 / keyint_min=23 / scenecut=40 / intra_refresh=0 / rc_lookahead=50 / rc=crf / mbtree=1 / crf=15.0 / qcomp=0.70 / qpmin=10 / qpmax=42 / qpstep=4 / vbv_maxrate=50000 / vbv_bufsize=50000 / crf_max=0.0 / nal_hrd=none / filler=0 / ip_ratio=1.40 / aq=1:0.90 Default : Yes Forced : No Audio ID : 2 Format : TrueHD Codec ID : A_TRUEHD Duration : 12 min 32 s Bit rate mode : Variable Bit rate : 782 kb/s Maximum bit rate : 1 152 kb/s Channel(s) : 2 channels Channel positions : Front: C Sampling rate : 48.0 kHz Frame rate : 1 200.000 FPS (40 SPF) Compression mode : Lossless Stream size : 70.1 MiB (9%) Language : Japanese Default : Yes Forced : No Text ID : 3 Format : ASS Codec ID : S_TEXT/ASS Codec ID/Info : Advanced Sub Station Alpha Duration : 11 min 12 s Bit rate : 171 b/s Count of elements : 200 Compression mode : Lossless Stream size : 14.1 KiB (0%) Title : Français Language : French Default : Yes Forced : No

File list

  • [Neutrinome] Tsurezure Children - VOSTFR [1080p BDRip TrueHD]
    • [Neutrinome] Tsurezure Children - 01 - VOSTFR [1080p BDRip TrueHD].mkv (790.4 MiB)
    • [Neutrinome] Tsurezure Children - 02 - VOSTFR [1080p BDRip TrueHD].mkv (794.1 MiB)
    • [Neutrinome] Tsurezure Children - 03 - VOSTFR [1080p BDRip TrueHD].mkv (622.4 MiB)
    • [Neutrinome] Tsurezure Children - 04 - VOSTFR [1080p BDRip TrueHD].mkv (696.5 MiB)
    • [Neutrinome] Tsurezure Children - 05 - VOSTFR [1080p BDRip TrueHD].mkv (711.9 MiB)
    • [Neutrinome] Tsurezure Children - 06 - VOSTFR [1080p BDRip TrueHD].mkv (748.3 MiB)
    • [Neutrinome] Tsurezure Children - 07 - VOSTFR [1080p BDRip TrueHD].mkv (600.3 MiB)
    • [Neutrinome] Tsurezure Children - 08 - VOSTFR [1080p BDRip TrueHD].mkv (661.0 MiB)
    • [Neutrinome] Tsurezure Children - 09 - VOSTFR [1080p BDRip TrueHD].mkv (565.4 MiB)
    • [Neutrinome] Tsurezure Children - 10 - VOSTFR [1080p BDRip TrueHD].mkv (603.1 MiB)
    • [Neutrinome] Tsurezure Children - 11 - VOSTFR [1080p BDRip TrueHD].mkv (595.5 MiB)
    • [Neutrinome] Tsurezure Children - 12 - VOSTFR [1080p BDRip TrueHD].mkv (822.9 MiB)
Merci pour le lien Uptobox en bonus c'est cool