Detective Conan - 147 [WAVE][BAFBED5F].mkv

Category:
Date:
2018-09-16 00:27 UTC
Submitter:
Seeders:
2
Information:
No information.
Leechers:
0
File size:
284.9 MiB
Completed:
163
Info hash:
3e67c651ed31be975fcf3a8b9b05f684ad8d08bd
Subs: Neg Raw: Reghost-Fabre --- MediaInfo ``` General Unique ID : 213216389128955924902168998509546370915 (0xA067FB9BC7927909D17FA10DEFECF763) Complete name : F:\Anime\Detective Conan\Detective Conan S06 - [135-162]\Detective Conan - 147 [WAVE][BAFBED5F].mkv Format : Matroska Format version : Version 4 File size : 285 MiB Duration : 24 min 27 s Overall bit rate : 1 628 kb/s Encoded date : UTC 2018-09-16 00:16:06 Writing application : mkvmerge v25.0.0 ('Prog Noir') 64-bit Writing library : libebml v1.3.6 + libmatroska v1.4.9 Attachments : OpenSans-Bold.ttf / OpenSans-BoldItalic.ttf / OpenSans-Italic.ttf / OpenSans-Regular.ttf / Syntax LT Bold.ttf / Syntax LT Italic.ttf / Syntax LT.ttf Video ID : 1 Format : AVC Format/Info : Advanced Video Codec Format profile : High 10@L4 Format settings : CABAC / 16 Ref Frames Format settings, CABAC : Yes Format settings, RefFrames : 16 frames Codec ID : V_MPEG4/ISO/AVC Duration : 24 min 27 s Bit rate : 1 428 kb/s Width : 720 pixels Height : 480 pixels Display aspect ratio : 4:3 Frame rate mode : Constant Frame rate : 23.976 (24000/1001) FPS Color space : YUV Chroma subsampling : 4:2:0 Bit depth : 10 bits Scan type : Progressive Bits/(Pixel*Frame) : 0.172 Stream size : 250 MiB (88%) Title : [720x480/4:3@10bits] [CRF de 16] Reghost-Fabre Writing library : x264 core 146 r2538 121396c Encoding settings : cabac=1 / ref=16 / deblock=1:0:0 / analyse=0x3:0x133 / me=umh / subme=10 / psy=1 / psy_rd=1.00:0.00 / mixed_ref=1 / me_range=24 / chroma_me=1 / trellis=2 / 8x8dct=1 / cqm=0 / deadzone=21,11 / fast_pskip=1 / chroma_qp_offset=-2 / threads=6 / lookahead_threads=1 / sliced_threads=0 / nr=0 / decimate=1 / interlaced=0 / bluray_compat=0 / constrained_intra=0 / bframes=8 / b_pyramid=2 / b_adapt=2 / b_bias=0 / direct=3 / weightb=1 / open_gop=0 / weightp=2 / keyint=240 / keyint_min=23 / scenecut=40 / intra_refresh=0 / rc_lookahead=60 / rc=crf / mbtree=1 / crf=16.0 / qcomp=0.60 / qpmin=0 / qpmax=81 / qpstep=4 / ip_ratio=1.40 / aq=1:1.00 Language : Japanese Default : Yes Forced : No Audio ID : 2 Format : AC-3 Format/Info : Audio Coding 3 Commercial name : Dolby Digital Codec ID : A_AC3 Duration : 24 min 27 s Bit rate mode : Constant Bit rate : 192 kb/s Channel(s) : 2 channels Channel layout : L R Sampling rate : 48.0 kHz Frame rate : 31.250 FPS (1536 SPF) Bit depth : 16 bits Compression mode : Lossy Stream size : 33.6 MiB (12%) Title : Honchō no Keiji Koi Monogatari (Kōhen) (本庁の刑事恋物語(後編)) [日本語] Language : Japanese Service kind : Complete Main Default : Yes Forced : No Text ID : 3 Format : ASS Codec ID : S_TEXT/ASS Codec ID/Info : Advanced Sub Station Alpha Duration : 24 min 24 s Bit rate : 129 b/s Count of elements : 400 Compression mode : Lossless Stream size : 23.1 KiB (0%) Title : Neg Language : English Default : Yes Forced : No Menu 00:00:00.000 : en:Chapter 1 00:01:34.601 : en:Chapter 2 00:10:03.502 : en:Chapter 3 00:19:43.836 : en:Chapter 4 00:23:43.804 : en:Chapter 5 ```

File list

  • Detective Conan - 147 [WAVE][BAFBED5F].mkv (284.9 MiB)
Thanks for your work. I'll set up an autodownloader to seed this until my PC explodes. -Intervención#1146
Some error in the subtitles, might be more but this is what I remembered. Episode: 147 Dialogue: 0,0:12:08.20,0:12:10.04,Default,,0,0,0,,The pan could easily go awry. Uploaded the fix here: https://www.dropbox.com/s/9ayuoljq8gvsyo0/Detective%20Conan%20-%20147%20%5BWAVE%5D%5BBAFBED5F%5D.ass?dl=0

wave (uploader)

User
Thanks, I'll make sure to fix that in the batch.